<?xml version="1.0" standalone="no"?>
<!DOCTYPE svg PUBLIC "-//W3C//DTD SVG 1.1//EN" "http://www.w3.org/Graphics/SVG/1.1/DTD/svg11.dtd" >
<svg xmlns="http://www.w3.org/2000/svg">
<metadata>Generated by IcoMoon</metadata>
<defs>
<font id="icomoon" horiz-adv-x="1024">
<font-face units-per-em="1024" ascent="960" descent="-64" />
<missing-glyph horiz-adv-x="1024" />
<glyph unicode="&#x20;" horiz-adv-x="512" d="" />
<glyph unicode="&#xe900;" glyph-name="allah-word" d="M1015.040 686.488l-1.431 20.894-12.016 98.071-12.036-10.469c-6.769-5.884-13.114-11.364-19.063-16.492-91.088-78.618-91.78-80.616-72.829-213.967l0.763-5.392c16.838-118.921 16.804-241.813 16.77-360.656-0.014-28.284-0.020-57.531 0.2-86.218l0.173-21.711 14.586 16.078c115.994 127.847 96.521 410.801 84.882 579.863zM779.189 509.711c0.173 9.764 0.363 19.582 0.563 29.406 2.099 104.762 4.087 203.715-22.759 253.496l-5.558 10.313-8.061-8.512c-12.195-12.877-22.78-23.204-32.119-32.309-46.366-45.23-56.605-59.135-38.126-144 10.008-45.963 38.119-246.937-18.778-317.566-13.301-16.509-30.007-24.533-51.077-24.536h-0.014c-5.080 0-10.486 0.488-16.061 1.445-48.52 8.333-45.312 141.677-42.49 259.326 2.55 106.132 4.955 206.38-21.718 255.84l-5.558 10.313-8.061-8.512c-12.195-12.877-22.78-23.204-32.119-32.309-46.366-45.23-56.605-59.135-38.126-144 23.448-107.679 17.659-221.187 10.001-308.046-1.926-21.915-28.64-31.723-54.248-31.723-21.844 0-41.517 6.881-51.355 17.964-37.22 41.944-42.009 99.146-47.082 159.709-4.551 54.384-9.258 110.619-39.828 154.795l-5.491 7.943c0 0-34.351-5.87-40.106-39.326-5.762-33.452-4.809-90.156-109.154-154.201-11.836-7.268-24.109-14.752-36.104-22.946-73.338-50.127-69.913-104.108-61.349-131.822 16.309-52.749 75.695-94.073 135.21-94.073 49.805 0 88.911 28.277 110.019 78.499 28.898-66.009 105.715-124.73 169.096-124.73 24.787 0 66.589 9.414 90.162 66.993 16.54-43.023 50.931-67.108 97.501-67.108 80.439 0 173.946 75.98 173.946 173.759 0.743 35.514 0.756 88.938 0.522 127.091-0.315 52.891-0.634 71.442-1.675 78.828zM195.453 299.369c-6.664-4.446-15.38-6.796-25.204-6.796-14.613 0-43.311 5.365-76.207 39.967 35.782 32.031 77.306 54.39 123.638 66.576 5.46-28.175-5.284-88.453-22.227-99.746z" />
<glyph unicode="&#xe901;" glyph-name="multiply" d="M0 960v-1024h1024v1024h-1024zM989.867-29.867h-955.733v955.733h955.733v-955.733zM273.22 185.088l241.357 241.357 241.357-241.357 24.132 24.132-241.357 241.357 241.357 241.357-24.132 24.132-241.357-241.357-241.357 241.357-24.132-24.132 241.357-241.357-241.357-241.357z" />
<glyph unicode="&#xe902;" glyph-name="clock" d="M512 960c-281.6 0-512-230.4-512-512s230.4-512 512-512 512 230.4 512 512-230.4 512-512 512zM512 38.4c-225.28 0-409.6 184.32-409.6 409.6s184.32 409.6 409.6 409.6 409.6-184.32 409.6-409.6-184.32-409.6-409.6-409.6zM537.6 704h-76.8v-307.2l266.24-163.84 40.96 66.56-230.4 138.24z" />
<glyph unicode="&#xe903;" glyph-name="plus" d="M1024 479.67h-480.33v480.33h-63.34v-480.33h-480.33v-63.34h480.33v-480.33h63.34v480.33h480.33z" />
<glyph unicode="&#xe904;" glyph-name="minus" d="M0 479.67h1024v-63.34h-1024v63.34z" />
<glyph unicode="&#xe905;" glyph-name="play-button" d="M117.071-58.166c7.031-3.897 14.801-5.834 22.565-5.834 8.574 0 17.135 2.368 24.669 7.075l744.727 465.451c13.61 8.505 21.876 23.422 21.876 39.471s-8.266 30.965-21.876 39.471l-744.727 465.458c-14.352 8.971-32.436 9.443-47.234 1.241-14.798-8.204-23.98-23.791-23.98-40.712v-930.909c0-16.921 9.182-32.507 23.98-40.712z" />
<glyph unicode="&#xe906;" glyph-name="play-button-1" d="M121.285-64c-42.845 0-62.020 36.717-62.020 73.102v877.796c-0.003 36.385 19.172 73.102 62.014 73.102 13.87 0 28.251-4.246 42.754-12.621l760.199-438.885c25.743-14.868 40.503-36.913 40.503-60.491s-14.76-45.623-40.5-60.488l-760.206-438.901c-14.499-8.368-28.881-12.614-42.744-12.614zM121.279 914.344c-14.235 0-16.361-17.193-16.361-27.446v-877.796c0-10.25 2.126-27.446 16.364-27.446 3.949 0 10.615 1.128 19.919 6.499l760.203 438.898c11.068 6.389 17.675 14.222 17.675 20.95s-6.607 14.561-17.679 20.953l-760.199 438.885c-9.304 5.374-15.97 6.503-19.922 6.503z" />
<glyph unicode="&#xe907;" glyph-name="star-of-favorites-outline" d="M989.533 614.913c-14.345 12.615-32.002 20.748-51.066 23.518l-233.417 33.917-104.386 211.51c-8.527 17.275-21.719 31.558-38.148 41.301-15.243 9.037-32.71 13.816-50.517 13.816s-35.276-4.777-50.517-13.816c-16.43-9.743-29.62-24.025-38.147-41.301l-104.386-211.511-233.415-33.915c-19.066-2.77-36.725-10.903-51.068-23.518-13.306-11.702-23.246-26.839-28.749-43.776-5.502-16.935-6.357-35.024-2.473-52.313 4.189-18.635 13.695-35.596 27.492-49.043l168.901-164.639-39.873-232.471c-4.94-28.807 2.99-58.095 21.758-80.358 18.908-22.428 46.495-35.29 75.688-35.29 15.899 0 31.812 3.947 46.017 11.416l208.773 109.758 208.773-109.758c14.205-7.469 30.116-11.416 46.015-11.416 29.193 0 56.78 12.862 75.69 35.29 18.768 22.263 26.698 51.549 21.758 80.358l-39.871 232.471 168.901 164.639c13.795 13.449 23.302 30.407 27.491 49.043 3.886 17.289 3.031 35.378-2.471 52.313-5.505 16.935-15.447 32.072-28.752 43.776zM942.409 521.952l-186.531-181.827c-6.132-5.978-8.932-14.59-7.483-23.030l44.034-256.741c2.884-16.819-10.479-30.477-25.64-30.477-4.002 0-8.126 0.952-12.112 3.048l-230.567 121.215c-3.791 1.993-7.95 2.99-12.108 2.99s-8.318-0.997-12.108-2.99l-230.567-121.215c-3.985-2.095-8.114-3.048-12.114-3.048-15.163 0-28.525 13.658-25.64 30.477l44.034 256.741c1.449 8.44-1.35 17.052-7.483 23.030l-186.536 181.827c-15.443 15.052-6.922 41.279 14.42 44.381l257.784 37.458c8.474 1.231 15.8 6.554 19.591 14.234l115.285 233.59c4.772 9.67 14.052 14.505 23.333 14.505 9.282 0 18.561-4.837 23.331-14.505l115.285-233.59c3.791-7.678 11.115-13.003 19.591-14.234l257.782-37.458c21.343-3.102 29.863-29.329 14.42-44.381zM766.788-43.826c-16.037 0-32.084 3.981-46.41 11.515l-208.377 109.551-208.377-109.552c-14.328-7.534-30.376-11.515-46.413-11.515-29.445 0-57.268 12.972-76.339 35.592-18.93 22.453-26.928 51.995-21.945 81.050l39.796 232.029-168.581 164.328c-13.914 13.562-23.501 30.667-27.727 49.464-3.918 17.438-3.056 35.682 2.493 52.762 5.551 17.079 15.578 32.348 28.997 44.15 14.467 12.724 32.279 20.926 51.508 23.72l232.973 33.853 104.189 211.11c8.6 17.425 21.904 31.829 38.477 41.657 15.374 9.115 32.99 13.933 50.951 13.933 17.959 0 35.577-4.818 50.951-13.933 16.571-9.826 29.877-24.232 38.477-41.657l104.189-211.11 232.975-33.853c19.227-2.792 37.036-10.995 51.505-23.72 13.421-11.802 23.448-27.070 28.997-44.152 5.551-17.081 6.413-35.325 2.493-52.762-4.224-18.797-13.812-35.9-27.729-49.464l-168.581-164.326 39.796-232.029c4.983-29.055-3.015-58.597-21.947-81.050-19.072-22.618-46.898-35.591-76.341-35.591zM511.999 79.158l0.396-0.207 208.772-109.758c14.083-7.405 29.86-11.318 45.619-11.318 28.941 0 56.292 12.753 75.040 34.987 18.605 22.071 26.467 51.107 21.569 79.666l-39.946 232.914 169.222 164.95c13.676 13.333 23.101 30.145 27.252 48.619 3.854 17.139 3.007 35.074-2.449 51.864s-15.311 31.798-28.502 43.4c-14.221 12.506-31.727 20.569-50.629 23.314l-233.859 33.98-0.197 0.401-104.384 211.513c-8.454 17.129-21.532 31.286-37.818 40.946-15.112 8.961-32.429 13.697-50.083 13.697s-34.973-4.736-50.083-13.697c-16.287-9.658-29.365-23.817-37.818-40.946l-104.585-211.911-233.857-33.982c-18.901-2.747-36.409-10.807-50.629-23.314-13.19-11.602-23.047-26.608-28.502-43.4-5.456-16.79-6.303-34.723-2.451-51.864 4.153-18.476 13.578-35.288 27.256-48.621l169.22-164.95-0.075-0.442-39.873-232.471c-4.898-28.559 2.964-57.595 21.571-79.666 18.746-22.234 46.095-34.987 75.038-34.987 15.761 0 31.536 3.915 45.621 11.318l209.166 109.966zM766.788 29.029c-4.331 0-8.539 1.058-12.506 3.146l-230.567 121.215c-7.192 3.784-16.227 3.784-23.426 0l-230.567-121.215c-3.968-2.088-8.177-3.146-12.508-3.146-7.92 0-15.442 3.534-20.639 9.697-5.131 6.085-7.204 13.818-5.84 21.775l44.034 256.741c1.401 8.165-1.306 16.493-7.24 22.276l-186.534 181.825c-7.377 7.19-9.983 17.744-6.799 27.543s11.494 16.806 21.691 18.287l257.784 37.458c8.199 1.192 15.283 6.34 18.95 13.768l115.285 233.59c4.559 9.239 13.79 14.979 24.094 14.979 10.302 0 19.535-5.74 24.093-14.979l115.285-233.59c3.667-7.43 10.751-12.578 18.952-13.768l257.782-37.458c10.197-1.481 18.51-8.489 21.693-18.288 3.184-9.797 0.578-20.351-6.801-27.542l-186.534-181.827c-5.933-5.782-8.639-14.11-7.238-22.276l44.034-256.741c1.364-7.956-0.711-15.688-5.842-21.773-5.195-6.163-12.717-9.697-20.637-9.697zM511.999 157.982c4.34 0 8.665-1.068 12.505-3.087l230.567-121.215c3.723-1.956 7.665-2.949 11.717-2.949 7.416 0 14.467 3.315 19.338 9.095 4.803 5.695 6.743 12.935 5.464 20.387l-44.034 256.741c-1.495 8.719 1.393 17.608 7.729 23.783l186.533 181.825c6.91 6.736 9.35 16.622 6.369 25.798-2.983 9.178-10.768 15.743-20.321 17.132l-257.782 37.458c-8.751 1.272-16.316 6.767-20.231 14.698l-115.285 233.59c-4.272 8.654-12.92 14.030-22.569 14.030-9.651 0-18.299-5.376-22.569-14.030l-115.285-233.59c-3.915-7.932-11.477-13.428-20.231-14.698l-257.784-37.46c-9.551-1.388-17.336-7.952-20.317-17.13s-0.541-19.064 6.369-25.8l186.533-181.825c6.335-6.175 9.224-15.066 7.728-23.783l-44.034-256.741c-1.277-7.452 0.663-14.693 5.464-20.389 4.872-5.777 11.921-9.093 19.338-9.093 4.054 0 7.996 0.993 11.717 2.949l230.567 121.215c3.843 2.020 8.166 3.088 12.505 3.088z" />
<glyph unicode="&#xe908;" glyph-name="next" d="M743.156 728.843l-45.612-45.614 202.973-202.975h-900.517v-64.509h900.517l-202.973-202.973 45.612-45.614 280.844 280.844z" />
<glyph unicode="&#xe909;" glyph-name="search" d="M1017.75 2.582l-297.465 297.465c56.42 69.654 90.382 158.206 90.382 254.618 0 223.5-181.834 405.335-405.335 405.335s-405.333-181.834-405.333-405.335 181.834-405.335 405.335-405.335c96.412 0 184.964 33.964 254.618 90.382l297.465-297.465c8.334-8.33 21.838-8.33 30.172 0l30.162 30.164c8.33 8.332 8.33 21.84-0.002 30.17zM405.335 234.665c-176.458 0-320.001 143.542-320.001 320.001s143.542 320.001 320.001 320.001 320.001-143.542 320.001-320.001-143.542-320.001-320.001-320.001z" />
<glyph unicode="&#xe90a;" glyph-name="bag" d="M879.266 696.94c-0.936 11.087-10.276 19.582-21.405 19.473h-162.676v61.647c0 100.485-81.463 181.94-181.94 181.94-100.485 0-181.94-81.455-181.94-181.94v-61.647h-162.676c-11.079-0.042-20.326-8.453-21.405-19.473l-56.079-644.716c-2.55-29.891 7.55-59.49 27.86-81.589 20.301-22.090 48.938-34.657 78.946-34.632h630.794c30.008-0.025 58.645 12.542 78.946 34.632 20.309 22.099 30.418 51.697 27.868 81.589zM374.115 778.060c0 76.839 62.291 139.13 139.13 139.13s139.13-62.291 139.13-139.13v-61.647h-278.261zM876.055-0.426c-12.107-13.328-29.306-20.878-47.308-20.761h-631.012c-18.002-0.008-35.176 7.542-47.349 20.803-12.166 13.269-18.211 31.037-16.647 48.972l54.365 625.017h143.202v-133.562c-34.423-10.594-55.92-44.766-50.56-80.385 5.351-35.61 35.953-61.948 71.965-61.948s66.605 26.338 71.965 61.948c5.351 35.619-16.145 69.791-50.56 80.385v133.779h278.261v-133.779c-34.423-10.594-55.92-44.766-50.56-80.385 5.351-35.61 35.953-61.948 71.965-61.948s66.605 26.338 71.965 61.948c5.351 35.619-16.145 69.791-50.56 80.385v133.779h142.985l54.365-625.017c1.756-18.010-4.239-35.911-16.48-49.231zM349.5 500.226c2.132-0.284 4.289-0.284 6.421 0 15.828-1.706 27.567-15.502 26.714-31.396-0.861-15.903-14.005-28.361-29.925-28.361-15.928 0-29.072 12.458-29.925 28.361-0.853 15.895 10.878 29.691 26.714 31.396zM670.57 500.226c2.132-0.284 4.289-0.284 6.421 0 15.828-1.706 27.567-15.502 26.714-31.396-0.861-15.903-14.005-28.361-29.925-28.361-15.928 0-29.072 12.458-29.925 28.361-0.853 15.895 10.878 29.691 26.714 31.396z" />
<glyph unicode="&#xe90b;" glyph-name="quote" d="M237.628 485.74v-82.428h205.932v-443.55h-443.561v443.55h0.011v82.428c0 167.38 48.158 291.667 143.145 369.431 65.708 53.792 148.881 81.066 247.213 81.066v-237.607c-53.379 0-152.74 0-152.74-212.89zM970.814 698.63v237.607c-98.327 0-181.499-27.274-247.208-81.066-94.987-77.764-143.151-202.057-143.151-369.431v-525.977h443.544v443.55h-205.932v82.428c0.005 212.89 99.367 212.89 152.746 212.89z" />
<glyph unicode="&#xe90c;" glyph-name="star" d="M237.824 304.555l-54.059-331.392c-1.963-12.075 3.115-24.235 13.141-31.317 9.984-7.040 23.168-7.808 33.92-1.835l281.173 155.392 281.173-155.435c4.864-2.645 10.197-3.968 15.488-3.968 6.485 0 12.928 1.963 18.432 5.845 10.027 7.083 15.104 19.243 13.141 31.317l-54.059 331.392 228.693 234.411c8.363 8.576 11.264 21.163 7.467 32.512-3.797 11.392-13.653 19.627-25.515 21.461l-314.795 48.085-141.099 300.544c-10.539 22.443-47.36 22.443-57.899 0l-141.056-300.544-314.795-48.085c-11.861-1.835-21.717-10.069-25.515-21.461s-0.939-23.936 7.424-32.512zM368.512 580.352c10.539 1.621 19.584 8.363 24.107 18.005l119.381 254.336 119.381-254.293c4.523-9.643 13.568-16.427 24.107-18.005l270.123-41.259-196.48-201.387c-7.125-7.253-10.325-17.493-8.704-27.52l46.080-282.325-239.019 132.096c-4.821 2.645-10.155 4.011-15.488 4.011s-10.667-1.323-15.488-4.011l-239.019-132.096 46.080 282.325c1.621 10.027-1.579 20.224-8.704 27.52l-196.48 201.387z" />
<glyph unicode="&#xe90d;" glyph-name="favourite" d="M828.339-41.244l-316.339 166.311-316.339-166.311 60.414 352.243-256.075 249.471 353.721 51.378 158.279 325.395 158.279-325.395 353.721-51.378-256.075-249.469z" />
<glyph unicode="&#xe90e;" glyph-name="quote-1" d="M0 384h184.96l-64-320h257.248l69.152 345.6 0.64 422.4h-448v-448zM64 768h320v-348.8l-58.208-291.2h-126.752l64 320h-199.040v320zM576 832v-448h184.96l-64-320h257.248l69.152 345.6 0.64 422.4h-448zM960 419.2l-58.208-291.2h-126.752l64 320h-199.040v320h320v-348.8z" />
<glyph unicode="&#xe90f;" glyph-name="next-1" d="M167.872 527.68c-17.312 2.448-33.696-9.664-36.208-27.168-2.432-17.136-3.664-34.8-3.664-52.512 0-17.696 1.232-35.376 3.664-52.512 2.288-15.968 15.984-27.488 31.648-27.488 1.52 0 3.024 0.112 4.56 0.32 17.504 2.496 29.664 18.704 27.168 36.208-2.032 14.144-3.040 28.784-3.040 43.472 0 14.704 1.008 29.328 3.040 43.488 2.496 17.504-9.664 33.696-27.168 36.192zM512 832c-144.976 0-276.048-80.256-342.096-209.44-8.032-15.728-1.792-35.008 13.936-43.056 15.744-8.048 35.008-1.808 43.056 13.936 55.040 107.664 164.288 174.56 285.104 174.56 176.448 0 320-143.552 320-320s-143.552-320-320-320c-120.816 0-230.064 66.896-285.088 174.56-8.048 15.728-27.312 21.952-43.056 13.936-15.728-8.048-21.968-27.328-13.936-43.056 66.032-129.184 197.104-209.44 342.080-209.44 211.728 0 384 172.272 384 384 0 211.744-172.272 384-384 384zM256 448c0-17.664 14.336-32 32-32h370.752l-73.376-73.376c-12.496-12.496-12.496-32.752 0-45.248 6.256-6.256 14.432-9.376 22.624-9.376s16.368 3.12 22.624 9.376l128 128c12.496 12.496 12.496 32.752 0 45.248l-128 128c-12.496 12.496-32.752 12.496-45.248 0s-12.496-32.752 0-45.248l73.376-73.376h-370.752c-17.664 0-32-14.336-32-32z" />
<glyph unicode="&#xe910;" glyph-name="file" d="M853.817-63.997h-682.75c-9.398 0-16.999 7.593-16.999 16.999v989.921c0 9.398 7.601 16.999 16.999 16.999h528.958c4.601 0 8.804-1.805 11.999-5l153.589-153.589c3.203-3.203 5-7.601 5-11.999v-836.137c0.203-9.601-7.398-17.194-16.796-17.194zM188.268-29.804h648.55v811.935l-143.59 143.59h-504.96zM853.817 772.132h-153.589c-9.398 0-16.999 7.601-16.999 16.999v153.792c0 6.796 4.195 13.194 10.601 15.796 6.398 2.601 13.796 1.203 18.592-3.797l153.589-153.589c4.804-4.804 6.398-12.202 3.804-18.6-3-6.398-9.202-10.601-15.999-10.601zM717.226 806.333h95.391l-95.391 95.391zM853.817-63.997h-682.75c-9.398 0-16.999 7.593-16.999 16.999v307.171c0 9.398 7.601 16.999 16.999 16.999h682.547c9.398 0 16.999-7.601 16.999-16.999v-307.171c0.203-9.406-7.398-16.999-16.796-16.999zM188.268-29.804h648.55v272.978h-648.55zM273.457 4.193c-9.398 0-16.999 7.601-16.999 16.999v170.791c0 9.398 7.601 16.999 16.999 16.999 9.406 0 16.999-7.601 16.999-16.999v-170.588c0.203-9.398-7.593-17.202-16.999-17.202zM751.418 174.984h-102.39c-9.398 0-16.999 7.593-16.999 16.999 0 9.398 7.601 16.999 16.999 16.999h102.39c9.406 0 16.999-7.601 16.999-16.999 0-9.406-7.593-16.999-16.999-16.999zM751.418 89.585h-102.39c-9.398 0-16.999 7.601-16.999 16.999 0 9.406 7.601 16.999 16.999 16.999h102.39c9.406 0 16.999-7.593 16.999-16.999 0-9.398-7.593-16.999-16.999-16.999zM649.028 4.193c-9.398 0-16.999 7.601-16.999 16.999v170.791c0 9.398 7.601 16.999 16.999 16.999s16.999-7.601 16.999-16.999v-170.588c0-9.398-7.601-17.202-16.999-17.202zM714.226 517.754c-6.601 12.601-22.803 18.795-49.395 18.795-15.6 0-34.802-2-57.199-6-31.201 32.599-63.596 80.197-86.595 126.99 3.601 14.999 6.999 30.201 9.601 45.403 3 17.795 6.601 38.192 2.797 56.191-1.594 7.203-5.796 13.6-10.593 18.998-4.203 4.601-9.999 10.999-16.803 10.999-3.601 0-13.397-1.601-17.194-2.797-9.804-3.203-14.999-10.804-19.202-20.397-11.999-27.802 4.398-74.994 21.397-111.593-14.6-56.995-38.794-125.193-64.393-180.587-64.393-29.201-98.594-57.792-101.789-85.196-1.203-9.999 1.195-24.592 18.998-37.591 4.796-3.601 10.593-5.406 16.397-5.406 14.796 0 29.998 11.202 47.395 35.403 12.601 17.592 26.396 41.59 40.598 71.393 45.598 19.6 101.789 37.395 150.183 47.395 26.803-25.396 50.996-38.395 71.596-38.395 15.202 0 28.201 6.999 37.802 19.998 9.796 13.6 11.999 25.795 6.398 36.396zM360.653 373.969c-7.999 6-7.398 9.999-7.398 11.593 1 9.406 15.796 25.998 52.191 45.996-27.396-50.191-42.192-56.792-44.793-57.589zM500.243 758.938c0.797 0.195 17.795-18.405 1.601-53.996-24.201 24.396-3.406 53.394-1.601 53.996zM465.043 489.756c17.202 40.598 33.396 85.392 45.395 126.99 18.998-33.794 41.997-66.792 64.995-93.196-36.192-8.195-74.791-20.194-110.39-33.794zM684.424 497.756c-5.195-7.203-16.592-7.398-20.592-7.398-8.999 0-12.405 5.398-26.404 15.796 11.405 1.398 22.201 1.805 30.802 1.805 15.194 0 17.999-2.203 19.998-3.406-0.203-1-1.203-3.195-3.804-6.796zM324.656 72.586h-51.199c-9.398 0-16.999 7.601-16.999 16.999v102.398c0 9.398 7.601 16.999 16.999 16.999h51.199c37.599 0 68.198-30.599 68.198-68.198 0.195-37.599-30.404-68.198-68.198-68.198zM290.658 106.584h34.2c18.795 0 34.193 15.405 34.193 34.2s-15.397 34.2-34.193 34.2h-34.2zM478.245 4.193h-16.999c-9.398 0-16.999 7.601-16.999 16.999v170.791c0 9.398 7.601 16.999 16.999 16.999h16.999c56.394 0 102.39-45.996 102.39-102.398 0-56.394-45.793-102.39-102.39-102.39zM478.245 174.984v-136.591c37.599 0 68.19 30.599 68.19 68.19 0 37.599-30.396 68.401-68.19 68.401z" />
<glyph unicode="&#xe911;" glyph-name="doc" d="M854.078 735.237l-219.365 219.368c-3.457 3.454-8.141 5.396-13.028 5.396h-329.050c-70.641 0-128.109-57.468-128.109-128.109v-767.782c0-70.641 57.468-128.109 128.109-128.109h219.368c10.174 0 18.427 8.253 18.427 18.427s-8.25 18.427-18.427 18.427h-219.368c-50.321 0-91.258 40.938-91.258 91.258v767.779c0 50.321 40.938 91.258 91.258 91.258h321.418l208.57-208.573v-431.103c0-10.174 8.25-18.427 18.427-18.427 10.174 0 18.427 8.25 18.427 18.427v438.735c-0.003 4.887-1.942 9.574-5.399 13.028zM841.050 740.632h-109.682c-50.318 0-91.255 40.938-91.255 91.258v109.682c0 10.177-8.25 18.427-18.427 18.427-10.174 0-18.427-8.25-18.427-18.427v-109.682c0-70.638 57.468-128.109 128.106-128.109h109.682c10.174 0 18.427 8.25 18.427 18.427s-8.25 18.424-18.424 18.424zM736.851 413.776h-444.216c-10.177 0-18.427-8.25-18.427-18.427s8.25-18.427 18.427-18.427h444.216c10.177 0 18.427 8.25 18.427 18.427s-8.253 18.427-18.427 18.427zM736.851 521.268h-444.216c-10.177 0-18.427-8.25-18.427-18.427s8.25-18.427 18.427-18.427h444.216c10.177 0 18.427 8.25 18.427 18.427s-8.253 18.427-18.427 18.427zM736.851 630.95h-444.216c-10.177 0-18.427-8.25-18.427-18.427s8.25-18.427 18.427-18.427h444.216c10.177 0 18.427 8.25 18.427 18.427s-8.253 18.427-18.427 18.427zM512 850.318h-219.365c-10.177 0-18.427-8.25-18.427-18.427s8.25-18.427 18.427-18.427h219.368c10.174 0 18.427 8.25 18.427 18.427-0.003 10.177-8.256 18.427-18.43 18.427zM381.479 227.539c-6.581 5.481-13.164 9.868-21.938 12.064-7.677 2.194-16.451 3.29-27.422 3.29h-38.39c-7.677 0-14.258-2.19-17.548-6.578-4.387-4.387-5.484-9.871-5.484-18.648v-115.166c0-5.484 0-9.871 1.097-14.258s3.29-7.68 7.677-10.968c3.29-2.19 8.777-3.29 15.355-3.29h38.39c6.581 0 13.164 0 18.645 1.094 5.484 1.097 10.968 3.293 16.454 5.484 5.484 2.194 9.871 5.484 14.258 9.871 5.484 5.484 9.871 10.968 13.164 18.648 3.29 6.578 5.484 14.258 7.677 23.032 1.097 7.68 2.194 17.551 2.194 27.422 0 29.613-8.774 52.645-24.129 68.002zM351.861 116.757c-2.194-1.097-3.29-3.29-5.484-3.29-2.194-1.097-5.484-1.097-7.677-2.194-2.194 0-6.581 0-10.968 0h-17.548v95.424h14.258c8.777 0 15.355-1.094 21.938-3.29 5.484-2.19 9.871-5.484 13.161-12.064 3.293-6.584 5.484-17.551 5.484-31.809 0-19.742-4.387-35.096-13.164-42.777zM579.999 204.504c-5.484 12.067-14.255 23.032-26.319 29.613-12.067 6.581-26.325 10.968-41.68 10.968-12.064 0-23.035-2.194-31.809-6.581-9.871-4.387-17.548-9.871-24.132-17.548-6.581-7.68-12.064-16.454-15.355-27.422s-5.484-21.938-5.484-35.099c0-12.067 2.194-24.129 4.387-34 3.29-10.968 8.774-19.742 14.258-27.422 6.581-7.677 15.355-14.258 25.226-18.645s20.842-6.581 32.903-6.581 23.035 2.194 32.903 6.581c9.871 4.387 17.548 9.871 24.129 18.645 6.581 7.68 12.067 17.551 15.355 27.422 3.29 9.871 4.39 21.935 4.39 35.099 0.006 17.548-3.284 32.903-8.771 44.97zM542.712 129.921c-3.29-7.68-7.677-13.164-13.164-16.454-9.871-6.581-21.935-6.581-31.809-2.194-4.387 2.194-7.677 5.484-10.968 8.777-3.29 4.387-5.484 9.871-7.677 16.451s-3.29 14.261-3.29 23.035 1.097 15.355 3.29 21.938c2.194 6.578 4.387 12.064 7.677 15.352 3.293 4.39 6.584 6.581 10.971 8.777 4.387 2.19 8.774 3.29 14.258 3.29 7.677 0 13.164-2.19 18.648-5.484 5.484-3.29 9.871-8.774 13.161-16.454 3.29-7.677 4.39-17.548 4.39-27.419-0.003-12.070-2.194-21.941-5.487-29.616zM755.496 143.082c-3.29 3.29-7.677 5.484-13.164 5.484-7.677 0-10.968-3.29-13.164-6.581-2.194-3.29-4.387-6.578-5.484-12.064-2.194-7.68-6.581-13.164-10.968-17.551-5.484-3.29-10.968-5.484-18.648-5.484-6.581 0-12.064 2.194-17.548 5.484-4.387 3.29-8.774 8.774-12.064 15.355-3.29 7.68-4.387 17.551-4.387 28.516 0 17.551 3.29 30.712 9.871 39.489 6.581 8.774 14.258 13.161 25.226 13.161 6.581 0 12.064-1.097 16.451-4.387 4.39-3.29 8.777-8.774 12.067-15.355 2.194-5.484 5.484-8.774 7.677-10.968 3.29-3.29 7.677-4.387 12.067-4.387 5.484 0 9.871 2.194 13.161 6.581 3.29 3.29 5.484 8.774 5.484 13.161 0 7.68-3.29 15.355-8.774 24.129-5.484 7.68-13.164 15.355-23.035 20.842-9.871 5.484-21.935 8.774-34.003 8.774-10.968 0-20.842-2.19-29.613-5.481-8.777-4.39-17.548-9.874-24.129-17.551s-12.067-16.454-15.355-27.422c-3.29-10.965-5.484-23.032-5.484-36.193 0-7.68 1.097-15.355 2.194-23.035 1.097-7.677 3.29-14.258 6.581-20.842 3.29-6.578 6.581-12.064 10.968-17.548s9.871-10.968 15.355-14.261c5.484-3.29 12.064-6.578 18.645-7.677 6.581-2.194 14.258-2.194 21.938-2.194 10.968 0 20.842 2.194 29.613 5.484 8.777 3.293 15.355 8.777 20.842 15.355 5.484 6.581 8.774 12.067 12.064 18.648 2.194 6.578 3.29 12.064 3.29 18.645-2.187 1.1-4.384 6.584-7.674 9.874z" />
<glyph unicode="&#xe912;" glyph-name="link" d="M424.522 179.515l-120.663-120.663c-50.024-50.024-131.035-50.024-181.017-0.010-49.992 49.992-49.992 131.011-0.010 180.993l241.367 241.367c49.982 49.984 131.001 49.984 180.983 0 16.662-16.662 43.678-16.662 60.34 0s16.662 43.678 0 60.34c-83.308 83.308-218.355 83.308-301.664 0l-241.365-241.365c-83.308-83.308-83.308-218.355 0-301.664 83.298-83.352 218.355-83.352 301.708 0l120.663 120.663c16.662 16.662 16.662 43.678 0 60.34s-43.68 16.66-60.342-0.002zM961.508 897.52c-83.308 83.308-218.399 83.308-301.708 0l-144.769-144.769c-16.662-16.662-16.662-43.678 0-60.34s43.678-16.662 60.34 0l144.769 144.769c49.982 49.984 131.043 49.984 181.027 0 49.982-49.982 49.982-131.001 0-180.983l-265.474-265.476c-49.984-49.984-131.001-49.984-180.983 0-16.662 16.662-43.678 16.662-60.34 0s-16.662-43.678 0-60.34c83.308-83.308 218.355-83.308 301.664 0l265.474 265.474c83.308 83.308 83.308 218.357 0 301.666z" />
<glyph unicode="&#xe913;" glyph-name="call" d="M997.13 170.039l-207.261 138.219c-26.302 17.399-61.559 11.674-81.004-13.156l-60.373-77.624c-7.759-10.23-21.863-13.198-33.087-6.963l-11.484 6.331c-38.070 20.751-85.439 46.585-180.879 142.059s-121.326 142.879-142.077 180.879l-6.297 11.484c-6.321 11.222-3.409 25.386 6.825 33.207l77.572 60.355c24.82 19.447 30.553 54.694 13.174 81.004l-138.219 207.261c-17.811 26.792-53.546 34.835-81.12 18.259l-86.669-52.062c-27.232-16.010-47.211-41.938-55.748-72.351-31.209-113.715-7.731-309.97 281.37-599.105 229.974-229.956 401.178-291.797 518.853-291.797 27.082-0.116 54.058 3.407 80.202 10.476 30.419 8.527 56.352 28.508 72.351 55.748l52.114 86.617c16.6 27.58 8.561 63.337-18.243 81.158zM985.97 106.391l-51.994-86.669c-11.488-19.661-30.14-34.117-52.046-40.34-104.978-28.822-288.383-4.949-565.932 272.6s-301.419 460.938-272.598 565.932c6.231 21.933 20.705 40.608 40.39 52.114l86.669 51.994c11.964 7.199 27.474 3.709 35.203-7.917l138.102-207.243c7.547-11.412 5.067-26.708-5.699-35.153l-77.59-60.355c-23.612-18.055-30.355-50.724-15.818-76.653l6.161-11.194c21.809-39.998 48.923-89.757 147.912-188.73 98.989-98.971 148.732-126.087 188.712-147.894l11.21-6.177c25.926-14.536 58.597-7.795 76.653 15.818l60.355 77.59c8.447 10.76 23.736 13.238 35.153 5.699l207.243-138.219c11.634-7.723 15.124-23.241 7.915-35.203zM580.236 789.245c160.138-0.178 289.911-129.953 290.091-290.091 0-9.425 7.639-17.063 17.063-17.063s17.063 7.639 17.063 17.063c-0.198 178.979-145.238 324.022-324.218 324.218-9.425 0-17.063-7.639-17.063-17.063s7.639-17.063 17.063-17.063zM580.236 686.861c103.617-0.122 187.584-84.090 187.706-187.706 0-9.425 7.641-17.063 17.063-17.063 9.425 0 17.063 7.639 17.063 17.063-0.142 122.458-99.377 221.693-221.833 221.833-9.425 0-17.063-7.639-17.063-17.063s7.639-17.063 17.063-17.063zM580.236 584.476c47.097-0.056 85.263-38.222 85.321-85.321 0-9.425 7.641-17.063 17.063-17.063s17.063 7.639 17.063 17.063c-0.076 65.938-53.51 119.374-119.448 119.448-9.425 0-17.063-7.639-17.063-17.063s7.639-17.063 17.063-17.063z" />
<glyph unicode="&#xe914;" glyph-name="pin" d="M512 829.38c-116.913 0-212.057-95.143-212.057-212.057s95.143-212.057 212.057-212.057 212.057 95.143 212.057 212.057-95.143 212.057-212.057 212.057zM512 437.921c-98.973 0-179.402 80.428-179.402 179.402s80.428 179.402 179.402 179.402c98.973 0 179.402-80.428 179.402-179.402s-80.428-179.402-179.402-179.402zM512 960c-188.876 0-342.677-153.802-342.677-342.677 0-183.231 315.868-642.419 329.172-661.972l13.506-19.351 13.506 19.351c13.304 19.553 329.172 478.74 329.172 661.972 0 188.876-153.802 342.677-342.677 342.677zM512-6.148c-61.077 90.91-310.022 470.879-310.022 623.471 0 170.935 139.087 310.022 310.022 310.022s310.022-139.087 310.022-310.022c0-152.592-248.945-532.561-310.022-623.471z" />
<glyph unicode="&#xe915;" glyph-name="calendar" d="M256 499.2h102.4v-102.4h-102.4v102.4zM460.8 499.2h102.4v-102.4h-102.4v102.4zM665.6 499.2h102.4v-102.4h-102.4v102.4zM256 294.4h102.4v-102.4h-102.4v102.4zM460.8 294.4h102.4v-102.4h-102.4v102.4zM665.6 294.4h102.4v-102.4h-102.4v102.4zM972.8 857.6h-102.4v51.2c0 30.72-20.48 51.2-51.2 51.2s-51.2-20.48-51.2-51.2v-51.2h-512v51.2c0 30.72-20.48 51.2-51.2 51.2s-51.2-20.48-51.2-51.2v-51.2h-102.4c-30.72 0-51.2-20.48-51.2-51.2v-819.2c0-30.72 20.48-51.2 51.2-51.2h921.6c25.6 0 51.2 20.48 51.2 51.2v819.2c0 30.72-25.6 51.2-51.2 51.2zM921.6 38.4h-819.2v614.4h819.2v-614.4z" />
<glyph unicode="&#xe916;" glyph-name="verified" d="M874.038 810.040c-96.704 96.702-225.278 149.96-362.038 149.96-136.762 0-265.336-53.258-362.040-149.96-96.702-96.704-149.96-225.28-149.96-362.040s53.258-265.334 149.96-362.038c96.704-96.704 225.28-149.962 362.040-149.962s265.334 53.258 362.038 149.96c96.704 96.706 149.962 225.28 149.962 362.040s-53.258 265.334-149.962 362.040zM756.612 569.854l-286.13-286.132c-5.858-5.858-13.536-8.786-21.212-8.786-7.678 0-15.356 2.928-21.214 8.786l-160.668 160.666c-11.716 11.714-11.716 30.708 0 42.426 11.714 11.716 30.71 11.716 42.426 0l139.456-139.454 264.916 264.92c11.714 11.716 30.71 11.716 42.426 0s11.716-30.71 0-42.426z" />
<glyph unicode="&#xe917;" glyph-name="user" d="M504.702 466.735c67.765 0 126.437 24.305 174.39 72.258 47.937 47.945 72.25 106.609 72.25 174.382 0 67.75-24.305 126.422-72.258 174.382-47.953 47.937-106.625 72.242-174.382 72.242-67.773 0-126.437-24.305-174.382-72.25s-72.258-106.617-72.258-174.375c0-67.773 24.312-126.445 72.258-174.39 47.961-47.937 106.633-72.25 174.382-72.25zM372.757 845.321c36.789 36.789 79.945 54.672 131.945 54.672 51.992 0 95.156-17.883 131.953-54.672 36.789-36.797 54.68-79.961 54.68-131.945 0-52-17.891-95.156-54.68-131.953-36.797-36.797-79.961-54.68-131.953-54.68-51.984 0-95.14 17.891-131.945 54.68-36.797 36.789-54.687 79.953-54.687 131.953 0 51.984 17.891 95.148 54.687 131.945zM936.256 172.595c-1.383 19.953-4.18 41.719-8.297 64.703-4.156 23.156-9.508 45.047-15.914 65.055-6.625 20.68-15.617 41.101-26.75 60.672-11.539 20.312-25.102 38-40.32 52.555-15.914 15.227-35.398 27.469-57.93 36.398-22.453 8.883-47.336 13.383-73.953 13.383-10.453 0-20.562-4.289-40.086-17-12.016-7.836-26.070-16.898-41.758-26.922-13.414-8.547-31.586-16.555-54.031-23.805-21.898-7.086-44.133-10.68-66.086-10.68-21.937 0-44.172 3.594-66.086 10.68-22.422 7.242-40.601 15.25-53.992 23.797-15.539 9.93-29.602 18.992-41.797 26.937-19.508 12.711-29.617 17-40.070 17-26.625 0-51.5-4.508-73.945-13.398-22.516-8.914-42.008-21.156-57.937-36.398-15.219-14.562-28.781-32.242-40.312-52.547-11.117-19.57-20.117-39.984-26.742-60.68-6.398-20.008-11.75-41.891-15.906-65.047-4.125-22.953-6.914-44.726-8.297-64.726-1.359-19.555-2.047-39.906-2.047-60.469 0-53.453 16.992-96.726 50.5-128.64 33.094-31.492 76.875-47.461 130.133-47.461h493.062c53.242 0 97.023 15.969 130.125 47.461 33.516 31.891 50.508 75.18 50.508 128.648-0.008 20.633-0.703 40.984-2.070 60.484zM846.444 26.939c-21.867-20.812-50.898-30.93-88.758-30.93h-493.054c-37.867 0-66.898 10.117-88.758 30.922-21.445 20.414-31.867 48.281-31.867 85.172 0 19.187 0.633 38.133 1.898 56.32 1.234 17.844 3.758 37.445 7.5 58.273 3.695 20.57 8.398 39.875 13.992 57.351 5.367 16.758 12.687 33.351 21.766 49.336 8.664 15.234 18.633 28.305 29.633 38.836 10.289 9.852 23.258 17.914 38.539 23.961 14.133 5.594 30.016 8.656 47.258 9.117 2.102-1.117 5.844-3.25 11.906-7.203 12.336-8.039 26.555-17.211 42.273-27.25 17.719-11.297 40.547-21.5 67.82-30.305 27.883-9.016 56.32-13.594 84.547-13.594s56.672 4.578 84.539 13.586c27.297 8.82 50.117 19.016 67.859 30.328 16.086 10.281 29.906 19.187 42.242 27.234 6.062 3.945 9.805 6.086 11.906 7.203 17.25-0.461 33.133-3.523 47.273-9.117 15.273-6.047 28.242-14.117 38.531-23.961 11-10.523 20.969-23.594 29.633-38.844 9.086-15.977 16.414-32.578 21.773-49.32 5.602-17.5 10.312-36.797 14-57.351 3.734-20.867 6.266-40.476 7.5-58.289v-0.016c1.273-18.117 1.914-37.055 1.922-56.297-0.008-36.898-10.43-64.758-31.875-85.164z" />
<glyph unicode="&#xe918;" glyph-name="maps-and-flags" d="M512 960c-204.49 0-370.854-166.364-370.854-370.852 0-253.776 331.878-626.334 346.008-642.070 13.272-14.782 36.444-14.756 49.692 0 14.13 15.736 346.008 388.294 346.008 642.070-0.004 204.488-166.366 370.852-370.854 370.852zM512 402.562c-102.884 0-186.584 83.702-186.584 186.586s83.702 186.584 186.584 186.584 186.582-83.702 186.582-186.586-83.7-186.584-186.582-186.584z" />
<glyph unicode="&#xe919;" glyph-name="mail" d="M1009.93 837.5l-419.906-419.906c-21.516-21.516-49.766-32.266-78.023-32.266s-56.508 10.75-78.016 32.266l-419.914 419.906c-8.938-15.938-14.070-34.289-14.070-53.828v-674.805c0-60.836 49.492-110.336 110.336-110.336h803.336c60.836 0 110.328 49.5 110.328 110.336v674.805c0 19.539-5.133 37.891-14.070 53.828zM547.594 460.016l419.906 419.914c-15.938 8.945-34.297 14.070-53.828 14.070h-803.336c-19.539 0-37.898-5.125-53.836-14.070l419.906-419.914c19.633-19.625 51.563-19.625 71.188 0z" />
<glyph unicode="&#xe91a;" glyph-name="tick" d="M1012.464 808.984c-15.378 15.38-40.316 15.38-55.698 0l-638.421-638.423-251.11 251.112c-15.378 15.382-40.316 15.382-55.698 0-15.38-15.38-15.38-40.316 0-55.698l278.963-278.963c15.374-15.374 40.32-15.378 55.698 0l666.267 666.273c15.38 15.382 15.38 40.318 0 55.698z" />
<glyph unicode="&#xe91b;" glyph-name="check" d="M511.999 960c-282.769 0-511.999-229.23-511.999-511.999s229.23-511.999 511.999-511.999 511.999 229.23 511.999 511.999c-0.3 282.643-229.354 511.697-511.999 511.999zM511.999 9.144c-242.374 0-438.857 196.483-438.857 438.857s196.483 438.857 438.857 438.857 438.857-196.483 438.857-438.857c-0.261-242.267-196.59-438.595-438.857-438.857zM792.955 656.713c-14.173 13.689-36.641 13.689-50.811 0v0l-339.859-339.857-120.431 120.431c-14.031 14.529-37.185 14.929-51.711 0.898-14.529-14.031-14.929-37.185-0.898-51.711 0.294-0.304 0.594-0.604 0.898-0.898l146.286-146.286c14.28-14.278 37.431-14.278 51.711 0l365.715 365.715c14.031 14.526 13.629 37.678-0.9 51.709z" />
<glyph unicode="&#xe91c;" glyph-name="quote-2" d="M268.8 38.397h-127.997c-77.672 0-140.803 63.131-140.803 140.803v127.997c0 77.672 63.131 140.803 140.803 140.803h127.997c77.672 0 140.803-63.131 140.803-140.803v-127.997c0-77.672-63.131-140.803-140.803-140.803zM140.803 371.2c-35.278 0-64.003-28.725-64.003-64.003v-127.997c0-35.278 28.725-64.003 64.003-64.003h127.997c35.278 0 64.003 28.725 64.003 64.003v127.997c0 35.278-28.725 64.003-64.003 64.003zM38.4 268.797c-21.197 0-38.4 17.203-38.4 38.4v256.003c0 162.3 132.047 294.403 294.403 294.403h76.8c21.197 0 38.4-17.203 38.4-38.4s-17.203-38.4-38.4-38.4h-76.8c-120.019 0-217.603-97.641-217.603-217.603v-256.003c0-21.197-17.203-38.4-38.4-38.4zM883.2 38.397h-127.997c-77.672 0-140.803 63.131-140.803 140.803v127.997c0 77.672 63.131 140.803 140.803 140.803h127.997c77.672 0 140.803-63.131 140.803-140.803v-127.997c0-77.672-63.131-140.803-140.803-140.803zM755.203 371.2c-35.278 0-64.003-28.725-64.003-64.003v-127.997c0-35.278 28.725-64.003 64.003-64.003h127.997c35.278 0 64.003 28.725 64.003 64.003v127.997c0 35.278-28.725 64.003-64.003 64.003zM652.8 268.797c-21.197 0-38.4 17.203-38.4 38.4v256.003c0 162.3 132.047 294.403 294.403 294.403h76.8c21.197 0 38.4-17.203 38.4-38.4s-17.203-38.4-38.4-38.4h-76.8c-120.019 0-217.603-97.641-217.603-217.603v-256.003c0-21.197-17.203-38.4-38.4-38.4z" />
<glyph unicode="&#xe91d;" glyph-name="confirmation" d="M734.165 584.832c-16.64 16.661-43.691 16.661-60.331 0l-183.168-183.147-76.501 76.48c-16.64 16.661-43.691 16.661-60.331 0-16.661-16.661-16.661-43.669 0-60.331l106.667-106.667c8.32-8.341 19.243-12.501 30.165-12.501s21.845 4.16 30.165 12.501l213.333 213.333c16.661 16.661 16.661 43.669 0 60.331zM981.333 490.667c-23.552 0-42.667-19.115-42.667-42.667 0-235.264-191.403-426.667-426.667-426.667s-426.667 191.403-426.667 426.667 191.403 426.667 426.667 426.667c114.539 0 222.059-44.757 302.784-126.037 16.576-16.747 43.605-16.832 60.331-0.213 16.725 16.597 16.811 43.605 0.213 60.331-96.853 97.536-225.899 151.253-363.328 151.253-282.325 0-512-229.675-512-512s229.675-512 512-512 512 229.675 512 512c0 23.552-19.115 42.667-42.667 42.667z" />
<glyph unicode="&#xe91e;" glyph-name="telephone" d="M778.514 282.604c-33.454 33.028-75.219 33.028-108.46 0-25.357-25.144-50.714-50.288-75.645-75.858-6.819-7.032-12.572-8.523-20.882-3.836-16.408 8.95-33.88 16.194-49.649 25.996-73.514 46.239-135.096 105.69-189.645 172.599-27.062 33.241-51.14 68.826-67.974 108.886-3.409 8.097-2.77 13.424 3.836 20.030 25.357 24.505 50.075 49.649 75.006 74.793 34.733 34.946 34.733 75.858-0.213 111.017-19.817 20.030-39.634 39.634-59.451 59.664-20.456 20.456-40.699 41.125-61.368 61.368-33.454 32.602-75.219 32.602-108.46-0.213-25.57-25.144-50.075-50.927-76.071-75.645-24.079-22.8-36.224-50.714-38.781-83.316-4.049-53.058 8.95-103.133 27.275-151.929 37.503-101.002 94.61-190.711 163.862-272.962 93.544-111.23 205.201-199.234 335.822-262.733 58.811-28.553 119.754-50.501 186.023-54.124 45.6-2.557 85.234 8.95 116.984 44.535 21.735 24.292 46.239 46.452 69.253 69.679 34.094 34.52 34.307 76.284 0.426 110.378-40.486 40.699-81.185 81.185-121.884 121.671zM737.814 452.432l78.628 13.424c-12.359 72.236-46.452 137.653-98.232 189.645-54.763 54.763-124.015 89.283-200.3 99.937l-11.080-79.054c59.024-8.31 112.722-34.946 155.126-77.35 40.060-40.060 66.269-90.774 75.858-146.602zM860.764 794.22c-90.774 90.774-205.627 148.094-332.412 165.78l-11.080-79.054c109.526-15.342 208.823-64.991 287.238-143.193 74.367-74.367 123.163-168.337 140.849-271.683l78.628 13.424c-20.669 119.754-77.137 228.427-163.223 314.726z" />
<glyph unicode="&#xe91f;" glyph-name="email" d="M934 838h-844c-13.854 0-26.824-3.406-38.558-9.020l458.558-458.558 102.778 98.774c0 0 0.008 0.010 0.010 0.014s0.010 0.008 0.010 0.008l359.774 359.754c-11.736 5.618-24.714 9.028-38.572 9.028zM1014.992 786.544l-338.566-338.548 338.554-338.554c5.614 11.734 9.020 24.704 9.020 38.558v600c0 13.846-3.398 26.814-9.008 38.544zM9.020 786.558c-5.614-11.734-9.020-24.704-9.020-38.558v-600c0-13.846 3.402-26.818 9.012-38.548l338.566 338.548-338.558 338.558zM634.004 405.574l-102.792-98.786c-5.86-5.86-13.536-8.79-21.21-8.79s-15.352 2.93-21.21 8.79l-98.792 98.79-338.572-338.55c11.736-5.618 24.714-9.028 38.572-9.028h844c13.854 0 26.824 3.406 38.558 9.020l-338.554 338.554z" />
<glyph unicode="&#xe920;" glyph-name="pin-1" d="M512 960c-211.75 0-384-172.27-384-384 0-283.292 354.292-620 369.376-634.208 4.124-3.854 9.374-5.792 14.624-5.792s10.5 1.938 14.626 5.792c15.082 14.208 369.374 350.916 369.374 634.208 0 211.73-172.25 384-384 384zM512 362.666c-117.626 0-213.334 95.708-213.334 213.334s95.71 213.334 213.334 213.334 213.334-95.71 213.334-213.334-95.708-213.334-213.334-213.334z" />
<glyph unicode="&#xe921;" glyph-name="placeholder" d="M512 960c-198.504 0-360-161.496-360-360 0-67.068 18.578-132.52 53.738-189.304l285.77-460.514c5.474-8.822 15.118-14.182 25.49-14.182 0.080 0 0.158 0 0.238 0 10.462 0.082 20.126 5.608 25.5 14.584l278.486 464.976c33.22 55.584 50.778 119.362 50.778 184.44 0 198.504-161.496 360-360 360zM769.732 446.364l-253.188-422.736-259.81 418.68c-29.266 47.264-45.134 101.792-45.134 157.692 0 165.42 134.98 300.4 300.4 300.4s300.2-134.98 300.2-300.4c0-54.242-14.822-107.376-42.468-153.636zM512 780c-99.252 0-180-80.748-180-180 0-98.618 79.434-180 180-180 101.806 0 180 82.466 180 180 0 99.252-80.748 180-180 180zM512 479.6c-66.514 0-120.4 54.066-120.4 120.4 0 66.168 54.232 120.4 120.4 120.4s120.2-54.232 120.2-120.4c0-65.366-52.632-120.4-120.2-120.4z" />
<glyph unicode="&#xe922;" glyph-name="down-arrow" d="M0 704.001l512.002-512.002 511.998 512.002z" />
<glyph unicode="&#xe923;" glyph-name="quote-3" d="M0 374.857h219.428l-146.287-292.57h219.428l146.287 292.57v438.857h-438.857zM585.143 813.713v-438.857h219.428l-146.287-292.57h219.428l146.287 292.57v438.857z" />
<glyph unicode="&#xe924;" glyph-name="open-archive" d="M1012.594 584.087c-12.237 17.246-32.853 27.139-56.566 27.139h-90.254v98.152c0 37.826-30.773 68.599-68.599 68.599h-316.377c-13.46 0-34.466 10.664-42.405 21.529l-23.68 32.39c-18.473 25.267-56.006 44.326-87.309 44.326h-109.628c-34.459 0-69.114-24.503-80.605-57l-7.538-21.329c-3.552-10.049-17.506-19.916-28.166-19.916h-32.868c-37.826 0-68.599-30.773-68.599-68.599v-619.502c0-3.282 0.597-6.415 1.643-9.341 0.564-12.259 4.375-23.82 11.321-33.61 12.237-17.25 32.853-27.139 56.566-27.139h698.913c42.253 0 86.286 31.236 100.247 71.116l150.832 430.829c7.831 22.378 5.31 45.105-6.927 62.354zM68.599 722.356h32.868c34.466 0 69.118 24.503 80.605 57l7.535 21.321c3.556 10.052 17.509 19.92 28.17 19.92h109.624c13.46 0 34.466-10.664 42.409-21.529l23.68-32.386c18.473-25.27 56.006-44.326 87.309-44.326h316.377c7.038 0 12.978-5.944 12.978-12.978v-98.152h-553.039c-42.253 0-86.286-31.236-100.247-71.116l-101.248-289.201v458.469c0 7.034 5.944 12.978 12.978 12.978zM967.022 540.109l-150.832-430.829c-6.207-17.728-28.967-33.873-47.748-33.873h-698.913c-5.369 0-9.556 1.383-11.198 3.701s-1.568 6.726 0.208 11.795l150.832 430.829c6.207 17.728 28.967 33.873 47.748 33.873h698.913c5.369 0 9.556-1.383 11.202-3.701 1.639-2.318 1.565-6.726-0.211-11.795z" />
<glyph unicode="&#xe925;" glyph-name="send" d="M1013.958 951.266c-9.125 8.593-22.375 11.062-33.843 6.438l-959.986-383.995c-10.593-4.249-18.094-13.751-19.78-25.030-1.657-11.25 2.781-22.561 11.656-29.656l307.996-246.511v-176.512c0-11.812 6.5-22.655 16.905-28.219 4.72-2.531 9.905-3.781 15.093-3.781 6.218 0 12.406 1.813 17.75 5.376l93.33 62.223 186.289-186.221c6.062-6.062 14.251-9.375 22.625-9.375 2.437 0 4.906 0.282 7.344 0.844 10.811 2.563 19.5 10.531 22.999 21.031l319.996 959.982c3.969 11.814 0.688 24.844-8.375 33.407zM859.128 840.373l-509.566-509.566-254.715 203.872zM383.999 155.775v54.863l32.922-32.907zM657.994 27.216l-260.805 260.719 521.566 521.566z" />
<glyph unicode="&#xe926;" glyph-name="phone" d="M735.946-64c-33.055 0-65.829 5.844-97.878 17.487-141.19 51.29-272.245 134.826-379 241.58s-190.292 237.81-241.58 379c-16.481 45.374-21.345 92.212-14.451 139.218 6.458 44.030 23.513 86.774 49.324 123.613 25.925 37 60.488 67.775 99.95 88.996 42.082 22.629 88.014 34.105 136.524 34.105 15.087 0 28.127-10.542 31.289-25.293l50.226-234.388c2.274-10.614-0.988-21.657-8.662-29.333l-85.822-85.82c80.961-160.965 212.331-292.336 373.297-373.297l85.82 85.822c7.676 7.674 18.721 10.932 29.333 8.662l234.388-50.226c14.753-3.162 25.293-16.201 25.293-31.289 0-48.51-11.476-94.444-34.107-136.526-21.221-39.462-51.996-74.025-88.996-99.95-36.836-25.811-79.581-42.866-123.613-49.324-13.797-2.026-27.593-3.036-41.334-3.038zM263.267 894.603c-63.987-7.064-120.781-40.602-158.495-94.43-42.41-60.528-52.3-134.974-27.133-204.256 98.604-271.441 310.837-483.674 582.278-582.278 69.279-25.167 143.726-15.279 204.256 27.133 53.828 37.714 87.366 94.508 94.43 158.495l-190.674 40.858-89.628-89.628c-9.538-9.538-24.029-12.072-36.233-6.336-190.372 89.436-344.47 243.534-433.906 433.906-5.734 12.205-3.202 26.697 6.336 36.233l89.628 89.628z" />
<glyph unicode="&#xe927;" glyph-name="envelope" d="M927.999 832.001h-831.999c-52.938 0-96.001-43.063-96.001-96.001v-576c0-52.938 43.063-96.001 96.001-96.001h831.999c52.938 0 96.001 43.063 96.001 96.001v576c0 52.938-43.063 96.001-96.001 96.001zM927.999 768.001c4.348 0 8.484-0.902 12.265-2.477l-428.264-371.18-428.267 371.18c3.781 1.573 7.917 2.477 12.265 2.477zM927.999 128.001h-831.999c-17.656 0-32.001 14.343-32.001 32.001v537.905l427.031-370.094c6.032-5.218 13.501-7.813 20.969-7.813s14.937 2.593 20.969 7.813l427.031 370.094v-537.907c-0.002-17.656-14.345-31.999-32.001-31.999z" />
<glyph unicode="&#xe928;" glyph-name="pin-2" d="M883.094 691.672c-36.506 117.944-131.336 213.554-247.482 249.524-123.682 38.302-252.624 17.51-353.76-57.044-48.46-35.722-88.672-82.84-116.286-136.254-28.54-55.206-43.624-117.358-43.624-179.74 0-85.096 26.918-165.964 77.846-233.862l312.252-398.296 312.254 398.296c76.212 101.618 97.646 231.878 58.8 357.376zM776.466 370.552l-264.426-337.314-264.428 337.314c-42.95 57.378-65.654 125.704-65.654 197.606 0 105.066 50.656 205.136 135.506 267.684 85.628 63.122 195.118 80.624 300.396 48.024 97.504-30.196 177.168-110.64 207.906-209.938 33.056-106.804 15.086-217.364-49.3-303.376zM512.040 778.21c-115.822 0-210.052-94.23-210.052-210.052s94.23-210.052 210.052-210.052 210.052 94.23 210.052 210.052c0 115.822-94.23 210.052-210.052 210.052zM512.040 418.12c-82.73 0-150.038 67.306-150.038 150.038 0 82.73 67.306 150.038 150.038 150.038s150.038-67.306 150.038-150.038c0-82.73-67.308-150.038-150.038-150.038z" />
<glyph unicode="&#xe929;" glyph-name="calendar-1" d="M914.286 850.286h-109.714v73.142c0 20.199-16.374 36.572-36.572 36.572s-36.572-16.374-36.572-36.572v-73.142h-438.857v73.142c0 20.199-16.374 36.572-36.57 36.572s-36.572-16.374-36.572-36.572v-73.142h-109.714c-60.594 0-109.714-49.121-109.714-109.714v-694.857c0-60.594 49.121-109.714 109.714-109.714h804.572c60.594 0 109.714 49.121 109.714 109.714v694.857c0 60.594-49.121 109.714-109.714 109.714zM950.856 45.714c0-20.199-16.374-36.572-36.572-36.572h-804.569c-20.199 0-36.572 16.374-36.572 36.572v475.429h877.714v-475.429zM950.856 594.285h-877.714v146.286c0 20.199 16.374 36.572 36.572 36.572h109.714v-73.142c0-20.199 16.374-36.572 36.572-36.572s36.572 16.374 36.572 36.572v73.142h438.857v-73.142c0-20.199 16.374-36.572 36.572-36.572s36.572 16.374 36.572 36.572v73.142h109.714c20.199 0 36.572-16.374 36.572-36.572v-146.286zM292.571 448.001h-73.142c-20.199 0-36.572-16.374-36.572-36.572s16.374-36.572 36.572-36.572h73.142c20.199 0 36.572 16.374 36.572 36.572s-16.374 36.572-36.572 36.572zM548.571 448.001h-73.142c-20.199 0-36.572-16.374-36.572-36.572s16.374-36.572 36.572-36.572h73.142c20.199 0 36.572 16.374 36.572 36.572s-16.374 36.572-36.572 36.572zM804.572 448.001h-73.142c-20.199 0-36.572-16.374-36.572-36.572s16.374-36.572 36.572-36.572h73.142c20.199 0 36.572 16.374 36.572 36.572-0.002 20.199-16.376 36.572-36.572 36.572zM292.571 301.715h-73.142c-20.199 0-36.572-16.374-36.572-36.572s16.374-36.572 36.572-36.572h73.142c20.199 0 36.572 16.374 36.572 36.572s-16.374 36.572-36.572 36.572zM548.571 301.715h-73.142c-20.199 0-36.572-16.374-36.572-36.572s16.374-36.572 36.572-36.572h73.142c20.199 0 36.572 16.374 36.572 36.572s-16.374 36.572-36.572 36.572zM804.572 301.715h-73.142c-20.199 0-36.572-16.374-36.572-36.572s16.374-36.572 36.572-36.572h73.142c20.199 0 36.572 16.374 36.572 36.572-0.002 20.199-16.376 36.572-36.572 36.572zM292.571 155.428h-73.142c-20.199 0-36.572-16.374-36.572-36.572s16.374-36.57 36.572-36.57h73.142c20.199 0 36.572 16.374 36.572 36.572s-16.374 36.57-36.572 36.57zM548.571 155.428h-73.142c-20.199 0-36.572-16.374-36.572-36.572s16.374-36.572 36.572-36.572h73.142c20.199 0 36.572 16.374 36.572 36.572s-16.374 36.572-36.572 36.572zM804.572 155.428h-73.142c-20.199 0-36.572-16.374-36.572-36.572s16.374-36.572 36.572-36.572h73.142c20.199 0 36.572 16.374 36.572 36.572s-16.376 36.572-36.572 36.572z" />
<glyph unicode="&#xe92a;" glyph-name="calendar-2" d="M917.839 826.632h-64.283v50.947c0 14.67-12.003 26.674-26.674 26.674s-26.674-12.003-26.674-26.674v-50.947h-261.401v50.947c0 14.67-12.003 26.674-26.674 26.674s-26.674-12.003-26.674-26.674v-50.947h-264.069v50.947c0 14.67-12.003 26.674-26.674 26.674s-26.674-12.003-26.674-26.674v-50.947h-61.616c-58.682 0-106.428-49.346-106.428-108.028v-620.162c0-58.949 47.479-106.694 106.428-106.694h811.145c58.949 0 106.428 47.746 106.428 106.428v620.428c0.267 58.682-47.479 108.028-106.161 108.028zM970.92 98.442c0-29.341-23.473-53.080-52.814-53.347h-811.678c-29.341 0-53.080 23.74-53.080 53.080v620.428c0 29.608 23.74 54.681 53.080 54.681h61.616v-38.677c0-14.67 12.003-26.674 26.674-26.674s26.674 12.003 26.674 26.674v38.677h264.069v-38.677c0-14.67 12.003-26.674 26.674-26.674s26.674 12.003 26.674 26.674v38.677h261.401v-38.677c0-14.67 12.003-26.674 26.674-26.674s26.674 12.003 26.674 26.674v38.677h64.283c29.608 0 53.080-25.34 53.080-54.681v-620.162zM441.982 599.906h-46.679c-14.67 0-26.674-12.003-26.674-26.674s12.003-26.674 26.674-26.674h46.679c14.67 0 26.674 12.003 26.674 26.674s-12.003 26.674-26.674 26.674zM627.63 599.906h-46.679c-14.67 0-26.674-12.003-26.674-26.674s12.003-26.674 26.674-26.674h46.679c14.67 0 26.674 12.003 26.674 26.674s-11.736 26.674-26.674 26.674zM814.879 599.906h-46.679c-14.67 0-26.674-12.003-26.674-26.674s12.003-26.674 26.674-26.674h46.679c14.67 0 26.674 12.003 26.674 26.674s-12.003 26.674-26.674 26.674zM441.982 415.858h-46.679c-14.67 0-26.674-12.003-26.674-26.674s12.003-26.674 26.674-26.674h46.679c14.67 0 26.674 12.003 26.674 26.674s-12.003 26.674-26.674 26.674zM255 415.858h-46.946c-14.67 0-26.674-12.003-26.674-26.674s12.003-26.674 26.674-26.674h46.679c14.67 0 26.674 12.003 26.674 26.674s-11.736 26.674-26.407 26.674zM627.63 415.858h-46.679c-14.67 0-26.674-12.003-26.674-26.674s12.003-26.674 26.674-26.674h46.679c14.67 0 26.674 12.003 26.674 26.674s-11.736 26.674-26.674 26.674zM814.879 415.858h-46.679c-14.67 0-26.674-12.003-26.674-26.674s12.003-26.674 26.674-26.674h46.679c14.67 0 26.674 12.003 26.674 26.674s-12.003 26.674-26.674 26.674zM441.982 234.478h-46.679c-14.67 0-26.674-12.003-26.674-26.674s12.003-26.674 26.674-26.674h46.679c14.67 0 26.674 12.003 26.674 26.674s-12.003 26.674-26.674 26.674zM255 234.478h-46.946c-14.67 0-26.674-12.003-26.674-26.674s12.003-26.674 26.674-26.674h46.679c14.67 0 26.674 12.003 26.674 26.674s-11.736 26.674-26.407 26.674zM627.63 234.478h-46.679c-14.67 0-26.674-12.003-26.674-26.674s12.003-26.674 26.674-26.674h46.679c14.67 0 26.674 12.003 26.674 26.674s-11.736 26.674-26.674 26.674z" />
<glyph unicode="&#xe92b;" glyph-name="location" d="M512.004 467.61c66.166 0 119.996 53.832 119.996 120s-53.83 120-119.996 120c-66.17 0-120.004-53.832-120.004-120s53.834-120 120.004-120zM512.004 647.61c33.082 0 59.996-26.916 59.996-60s-26.914-60-59.996-60c-33.086 0-60.004 26.916-60.004 60s26.918 60 60.004 60zM893.722 270h-200.782c93.754 89.49 179.060 177.21 179.060 330 0 205.864-154.58 360-359.996 360-205.832 0-360.004-154.594-360.004-360 0-152.79 85.308-240.51 179.064-330h-200.786l-109.71-334h982.864zM212 600c0 173.832 126.17 300 300.004 300 173.83 0 299.996-126.168 299.996-300 0-194.476-164.152-263.356-299.996-430.846-40.824 50.332-84.484 91.878-126.94 132.272-96.692 92.002-173.064 164.672-173.064 298.574zM127.738 70h216.262v60h-196.554l26.278 80h218.276v1.348c79.692-79.026 101.252-118.634 120.004-142.252 19.216 24.204 40.072 62.988 119.996 142.248v-1.344h218.278l26.278-80h-196.556v-60h216.262l24.306-74h-817.136z" />
<glyph unicode="&#xe92c;" glyph-name="fan" d="M924 880c-11.039 0-20-8.961-20-20s8.961-20 20-20 20 8.961 20 20-8.961 20-20 20zM924 56c-11.039 0-20-8.961-20-20s8.961-20 20-20 20 8.961 20 20-8.961 20-20 20zM100 840c11.039 0 20 8.961 20 20s-8.961 20-20 20-20-8.961-20-20 8.961-20 20-20zM100 56c-11.039 0-20-8.961-20-20s8.961-20 20-20 20 8.961 20 20-8.961 20-20 20zM112 428h0.5c10.82 0.281 19.5 9.117 19.5 20s-8.68 19.719-19.5 20c-0.156 0-0.344 0-0.5 0-11.039 0-20-8.961-20-20s8.961-20 20-20zM924 960h-824c-55.141 0-100-44.859-100-100v-824c0-55.141 44.859-100 100-100h824c55.141 0 100 44.859 100 100v824c0 55.141-44.859 100-100 100zM984 36c0-33.086-26.914-60-60-60h-824c-33.086 0-60 26.914-60 60v824c0 33.086 26.914 60 60 60h824c33.086 0 60-26.914 60-60zM512 868c-204.047 0-372.414-144.281-411.68-336.375-2.203-10.82 4.773-21.391 15.594-23.602 10.82-2.203 21.391 4.773 23.602 15.594 36.047 176.367 192.695 304.383 372.484 304.383 209.531 0 380-170.469 380-380s-170.469-380-380-380c-180.906 0-334.102 125.242-372.523 304.57-2.313 10.797-12.953 17.68-23.75 15.367s-17.68-12.945-15.367-23.75c41.133-191.938 204.477-336.188 411.641-336.188 232.688 0 420 187.141 420 420 0 231.586-188.414 420-420 420zM732 608c0 99.25-80.75 180-180 180h-40c-11.047 0-20-8.953-20-20v-166.781c-33.367 41.227-84.242 66.781-140 66.781-99.25 0-180-80.75-180-180v-40c0-11.047 8.953-19.977 20-19.977h166.781c-41.227-33.375-66.781-84.266-66.781-140.023 0-99.25 80.75-180 180-180h40c11.047 0 20 8.953 20 20v166.781c33.367-41.227 84.242-66.781 140-66.781 99.25 0 180 80.75 180 180v40c0 11.047-8.953 20-20 20h-166.781c41.227 33.367 66.781 84.242 66.781 140zM552 748c77.195 0 140-62.805 140-140 0-56.805-34.070-107.102-85.008-128.781-11.133 33.844-39.82 59.57-74.992 66.75v202.031zM515.805 388.125c-33.938-2.047-61.695 23.852-63.68 56.070-2.109 34.992 25.609 63.805 59.875 63.805 32.836 0 60-26.633 60-60 0-31.633-24.703-57.938-56.195-59.875zM212 488c0 77.195 62.805 140 140 140 56.805 0 107.102-34.070 128.781-85.008-33.844-11.133-59.57-39.82-66.75-74.992h-202.031zM472 148c-77.195 0-140 62.805-140 140 0 56.805 34.070 107.102 85.008 128.781 11.133-33.844 39.82-59.57 74.992-66.75v-202.031zM812 408c0-77.195-62.805-140-140-140-56.805 0-107.102 34.070-128.781 85.008 33.844 11.133 59.57 39.82 66.75 74.992h202.031z" />
<glyph unicode="&#xe92d;" glyph-name="waste" d="M675.972 910.452c-47.054 31.249-103.391 49.548-163.972 49.548s-116.918-18.3-163.972-49.548h-348.028v-528.516h308.257l-76.354-259.601 31.678-9.315 137.199 466.482c14.419 49.003 60.152 83.208 111.22 83.208s96.801-34.205 111.22-83.208l137.199-466.482 31.678 9.315-76.354 259.601h308.257v528.516h-348.028zM858.839 877.419h66.065v-66.065h-66.065v66.065zM808.448 679.226h17.358v-66.065h-20.645c2.692 16.202 4.129 32.751 4.129 49.548 0 5.582-0.529 11.016-0.842 16.516zM804.814 712.258c-3.881 22.974-10.075 45.188-18.927 66.065h105.984v-66.065h-87.057zM792.774 564.571v-50.506h-23.090c9.282 16.054 16.995 32.95 23.090 50.506zM858.839 679.226h66.065v-66.065h-66.065v66.065zM825.806 877.419v-66.065h-56.749c-14.187 24.444-31.694 46.658-52.009 66.065h108.759zM198.194 877.419h108.742c-20.298-19.406-37.805-41.621-51.993-66.065h-56.749v66.065zM219.186 712.258h-87.057v66.065h105.984c-8.853-20.876-15.046-43.091-18.927-66.065zM254.299 514.065h-23.073v50.473c6.094-17.54 13.807-34.436 23.073-50.473zM218.839 613.161h-20.645v66.065h17.358c-0.314-5.5-0.842-10.934-0.842-16.516 0-16.797 1.437-33.346 4.129-49.548zM132.129 580.129h66.065v-66.065h-66.065v66.065zM99.097 613.161v66.065h66.065v-66.065h-66.065zM99.097 877.419h66.065v-66.065h-66.065v66.065zM33.032 877.419h33.032v-66.065h-33.032v66.065zM33.032 778.323h66.065v-66.065h-66.065v66.065zM33.032 679.226h33.032v-66.065h-33.032v66.065zM33.032 580.129h66.065v-66.065h-66.065v66.065zM66.065 414.968h-33.032v66.065h33.032v-66.065zM165.161 414.968h-66.065v66.065h66.065v-66.065zM264.258 414.968h-66.065v66.065h66.065v-66.065zM317.969 414.968h-20.678v42.149c8.126-8.44 16.813-16.45 26.013-24.014l-5.335-18.135zM690.407 468.133l-21.669 73.678c15.525 20.051 27.086 42.43 33.99 66.857l-31.777 9.001c-3.452-12.172-8.308-23.701-14.353-34.618l-1.701 5.781c-18.515 62.943-77.262 106.909-142.898 106.909s-124.383-43.966-142.898-106.925l-1.685-5.715c-13.329 24.246-20.579 51.613-20.579 79.608 0 91.070 74.091 165.161 165.161 165.161s165.161-74.091 165.161-165.161c0-5.070-0.248-10.091-0.677-15.046l32.9-2.94c0.529 5.929 0.809 11.925 0.809 17.986 0 109.287-88.906 198.194-198.194 198.194s-198.194-88.906-198.194-198.194c0-43.85 14.765-86.429 41.439-120.964l-21.653-73.629c-54.701 49.978-85.851 119.511-85.851 194.593 0 145.705 118.553 264.258 264.258 264.258s264.258-118.553 264.258-264.258c0-75.066-31.149-144.582-85.851-194.577zM726.71 414.968h-20.678l-5.335 18.151c9.199 7.564 17.887 15.575 26.013 24.014v-42.166zM825.806 414.968h-66.065v66.065h66.065v-66.065zM825.806 580.129h66.065v-66.065h-66.065v66.065zM924.903 414.968h-66.065v66.065h66.065v-66.065zM990.968 414.968h-33.032v66.065h33.032v-66.065zM990.968 514.065h-66.065v66.065h66.065v-66.065zM990.968 613.161h-33.032v66.065h33.032v-66.065zM990.968 712.258h-66.065v66.065h66.065v-66.065zM990.968 811.355h-33.032v66.065h33.032v-66.065zM924.903 150.71h-33.032c0-45.535-37.046-82.581-82.581-82.581s-82.581 37.046-82.581 82.581h-33.032c0-45.535-37.046-82.581-82.581-82.581s-82.581 37.046-82.581 82.581h-33.032c0-45.535-37.046-82.581-82.581-82.581s-82.581 37.046-82.581 82.581h-33.032c0-45.535-37.046-82.581-82.581-82.581s-82.581 37.046-82.581 82.581h-33.032c0-45.535-37.046-82.581-82.581-82.581h-16.516v-16.516c0-63.736 51.877-115.613 115.613-115.613 42.001 0 78.848 22.511 99.097 56.105 20.249-33.594 57.096-56.105 99.097-56.105s78.848 22.511 99.097 56.105c20.249-33.594 57.096-56.105 99.097-56.105s78.848 22.511 99.097 56.105c20.249-33.594 57.096-56.105 99.097-56.105s78.848 22.511 99.097 56.105c20.249-33.594 57.096-56.105 99.097-56.105 63.736 0 115.613 51.877 115.613 115.613v16.516h-16.516c-45.535 0-82.581 37.046-82.581 82.581zM115.613-30.968c-40.365 0-74.058 29.118-81.193 67.452 34.436 5.368 63.884 25.996 81.193 54.718 17.309-28.722 46.757-49.35 81.193-54.718-7.135-38.334-40.828-67.452-81.193-67.452zM313.806-30.968c-40.365 0-74.058 29.118-81.193 67.452 34.436 5.368 63.884 25.996 81.193 54.718 17.309-28.722 46.757-49.35 81.193-54.718-7.135-38.334-40.828-67.452-81.193-67.452zM512-30.968c-40.365 0-74.058 29.118-81.193 67.452 34.436 5.368 63.884 25.996 81.193 54.718 17.309-28.722 46.757-49.35 81.193-54.718-7.135-38.334-40.828-67.452-81.193-67.452zM710.194-30.968c-40.365 0-74.058 29.118-81.193 67.452 34.436 5.368 63.884 25.996 81.193 54.718 17.309-28.722 46.757-49.35 81.193-54.718-7.135-38.334-40.828-67.452-81.193-67.452zM908.387-30.968c-40.365 0-74.058 29.118-81.193 67.452 34.436 5.368 63.884 25.996 81.193 54.718 17.309-28.722 46.757-49.35 81.193-54.718-7.135-38.334-40.828-67.452-81.193-67.452zM495.484 547.097h-33.032v-41.29c0-23.073-7.63-45.948-21.471-64.396-18.102-24.147-28.077-54.074-28.077-84.249v-57.806h33.032v57.806c0 23.073 7.63 45.948 21.471 64.396 18.118 24.147 28.077 54.057 28.077 84.249v41.29zM594.581 390.194c0-23.073-7.63-45.948-21.471-64.396-18.102-24.147-28.077-54.074-28.077-84.249v-57.806h33.032v57.806c0 23.073 7.63 45.948 21.471 64.396 18.118 24.147 28.077 54.057 28.077 84.249v41.29h-33.032v-41.29zM462.452 266.323h33.032v-33.032h-33.032v33.032zM330.323 216.774h33.032v-33.032h-33.032v33.032zM627.613 266.323h33.032v-33.032h-33.032v33.032z" />
<glyph unicode="&#xe92e;" glyph-name="tank" d="M533.355 740.451l-87.106-87.106c-9.827 5.814-21.124 9.365-33.346 9.365-36.435 0-66.065-29.63-66.065-66.065s29.63-66.065 66.065-66.065 66.065 29.63 66.065 66.065c0 12.222-3.551 23.519-9.365 33.346l87.106 87.106-23.354 23.354zM412.903 563.613c-18.217 0-33.032 14.815-33.032 33.032s14.815 33.032 33.032 33.032c18.217 0 33.032-14.815 33.032-33.032s-14.815-33.032-33.032-33.032zM396.387 893.935h33.032v-66.065h-33.032v66.065zM309.15 803.958l-25.289 61.028 30.515 12.645 25.289-61.028-30.515-12.645zM237.724 748.471l-46.714 46.714 23.357 23.357 46.714-46.714-23.357-23.357zM192.955 669.888l-61.039 25.284 12.641 30.519 61.039-25.284-12.641-30.519zM115.613 613.161h66.065v-33.032h-66.065v33.032zM144.532 467.658l-12.645 30.515 61.028 25.289 12.645-30.515-61.028-25.289zM644.129 613.161h66.065v-33.032h-66.065v33.032zM693.889 695.15l-61.039-25.284-12.641 30.519 61.039 25.284 12.641-30.519zM564.661 771.79l46.714 46.714 23.357-23.357-46.714-46.714-23.357 23.357zM511.379 877.575l30.515-12.645-25.289-61.028-30.515 12.645 25.289 61.028zM974.452 530.581h-204.205c3.98 21.686 6.012 43.834 6.012 66.065 0 200.357-162.998 363.355-363.355 363.355s-363.355-162.998-363.355-363.355c0-166.004 111.93-306.259 264.258-349.498v-63.405h-82.581v66.065h-33.032v-66.065h-33.032v66.065h-33.032v-66.065h-132.129v-33.032h132.129v-115.613h-132.129v-33.032h132.129v-66.065h33.032v66.065h33.032v-66.065h33.032v66.065h330.323v-16.516c0-27.318 22.231-49.548 49.548-49.548h363.355c27.318 0 49.548 22.231 49.548 49.548v495.484c0 27.318-22.231 49.548-49.548 49.548zM198.194 35.097h-33.032v115.613h33.032v-115.613zM561.548 35.097h-330.323v115.613h115.613v88.708c21.438-3.947 43.503-6.127 66.065-6.127 22.214 0 44.329 2.081 66.065 6.094v-88.675h82.581v-115.613zM561.548 183.742h-49.548v63.471c16.929 4.79 33.511 10.735 49.548 17.92v-81.391zM561.548 481.032v-16.516h-313.806v-33.032h313.806v-33.032h-33.032v-33.032h33.032v-63.67c-45.816-23.106-96.95-35.427-148.645-35.427-182.14 0-330.323 148.183-330.323 330.323s148.183 330.323 330.323 330.323 330.323-148.183 330.323-330.323c0-22.297-2.345-44.428-6.739-66.065h-125.39c-27.318 0-49.548-22.231-49.548-49.548zM990.968-14.452c0-9.1-7.399-16.516-16.516-16.516h-363.355c-9.117 0-16.516 7.416-16.516 16.516v495.484c0 9.1 7.399 16.516 16.516 16.516h363.355c9.117 0 16.516-7.416 16.516-16.516v-495.484zM627.613 233.29h330.323v231.226h-330.323v-231.226zM660.645 431.484h264.258v-165.161h-264.258v165.161zM627.613 35.097h132.129v132.129h-132.129v-132.129zM660.645 134.194h66.065v-66.065h-66.065v66.065zM825.806 35.097h132.129v132.129h-132.129v-132.129zM858.839 134.194h66.065v-66.065h-66.065v66.065zM858.839 332.387h33.032v-33.032h-33.032v33.032zM693.677 332.387h132.129v-33.032h-132.129v33.032zM247.742 398.452h247.742v-33.032h-247.742v33.032z" />
<glyph unicode="&#xe92f;" glyph-name="gas-pipeline" d="M640 720c0 29.328-14.448 48.608-27.2 65.6-11.152 14.88-20.8 27.728-20.8 46.4v16h-16c-14.272 0-35.088-4.448-51.92-17.424-10.912 38.32-42.048 49.424-60.080 49.424h-16v-16c0-15.232-9.84-27.216-22.304-42.4-18.576-22.624-41.696-50.8-41.696-101.6 0-43.488 57.088-96 128-96s128 52.512 128 96zM416 720c0 39.344 17.504 60.672 34.432 81.296 10.624 12.944 21.504 26.208 26.608 42.816 8.848-5.104 18.96-16.88 18.96-44.112v-48h32v16c0 31.456 19.44 42.336 33.92 46.064 4.336-19.744 15.328-34.4 25.296-47.664 11.152-14.88 20.8-27.728 20.8-46.4 0-22.48-39.584-64-96-64s-96.016 41.52-96.016 64zM754.944 176c6.624-18.576 24.224-32 45.056-32h32c20.832 0 38.432 13.424 45.056 32h130.944v320h-130.944c-6.624 18.576-24.224 32-45.056 32h-32c-20.832 0-38.432-13.424-45.056-32h-178.944v75.2c74.448 26.448 128 97.392 128 180.8 0 105.872-86.128 192-192 192s-192-86.128-192-192c0-83.408 53.552-154.352 128-180.8v-75.2h-178.944c-6.624 18.576-24.224 32-45.056 32h-32c-20.832 0-38.432-13.424-45.056-32h-130.944v-320h130.944c6.624-18.576 24.224-32 45.056-32h32c20.832 0 38.432 13.424 45.056 32h66.944v-96h-16c-44.112 0-80-35.888-80-80v-16h-224v-32h992v32h-224v16c0 44.112-35.888 80-80 80h-16v96zM608 272h-192c-38.624 0-70.944-27.536-78.384-64h-65.616v256h480v-256h-65.616c-7.44 36.464-39.76 64-78.384 64zM976 208h-96v256h96zM784 480c0 8.816 7.184 16 16 16h32c8.816 0 16-7.184 16-16v-288c0-8.832-7.184-16-16-16h-32c-8.816 0-16 7.168-16 16zM352 752c0 88.224 71.776 160 160 160s160-71.776 160-160-71.776-160-160-160-160 71.776-160 160zM480 562.896c10.432-1.76 21.072-2.896 32-2.896s21.568 1.136 32 2.896v-66.896h-64zM48 464h96v-256h-96zM240 192c0-8.832-7.184-16-16-16h-32c-8.816 0-16 7.168-16 16v288c0 8.816 7.184 16 16 16h32c8.816 0 16-7.184 16-16zM752 0v-16h-480v16c0 26.464 21.536 48 48 48h384c26.464 0 48-21.536 48-48zM368 80v112c0 26.464 21.536 48 48 48h192c26.464 0 48-21.536 48-48v-112z" />
<glyph unicode="&#xe930;" glyph-name="water" d="M919.817 627.227h-3.576l-16.312 65.249h-61.673v65.249h185.743l-43.505 130.498h-44.365v16.312c0 26.985-21.959 48.937-48.937 48.937h-750.362c-26.985 0-48.937-21.951-48.937-48.937v-16.312h-44.389l-43.505-130.498h185.767v-65.249h-61.681l-16.312-65.249h-3.568c-26.985 0-48.937-21.951-48.937-48.937v-32.624c0-21.235 13.684-39.18 32.624-45.934v-476.057c0-44.97 36.583-81.561 81.561-81.561h195.747c44.97 0 81.561 36.591 81.561 81.561v476.057c18.933 6.754 32.624 24.699 32.624 45.934v32.624c0 26.985-21.959 48.937-48.937 48.937h-3.576l-16.312 65.249h-61.673v65.249h326.245v-65.249h-61.681l-16.312-65.249h-3.568c-26.985 0-48.937-21.951-48.937-48.937v-32.624c0-21.235 13.684-39.18 32.624-45.934v-476.057c0-44.97 36.583-81.561 81.561-81.561h195.747c44.97 0 81.561 36.591 81.561 81.561v476.057c18.933 6.754 32.624 24.699 32.624 45.934v32.624c0 26.985-21.959 48.937-48.937 48.937zM120.518 904.535c0 8.992 7.32 16.312 16.312 16.312h750.362c8.984 0 16.312-7.32 16.312-16.312v-16.312h-782.987zM67.025 855.599h889.98l21.744-65.249h-933.485zM120.518 23.675v473.055h130.498v-521.991h-81.561c-26.985 0-48.937 21.959-48.937 48.937zM365.201-25.262h-16.312v456.742h-32.624v-456.742h-32.624v521.991h32.624v-32.624h32.624v32.624h65.249v-473.055c0-26.977-21.959-48.937-48.937-48.937zM446.762 578.291v-32.624c0-8.984-7.328-16.312-16.312-16.312h-326.245c-8.992 0-16.312 7.328-16.312 16.312v32.624c0 8.992 7.32 16.312 16.312 16.312h326.245c8.984 0 16.312-7.32 16.312-16.312zM393.238 627.227h-251.828l8.156 32.624h235.516zM316.264 692.476h-97.873v65.249h97.873zM707.758 757.725h97.873v-65.249h-97.873zM638.933 659.852h235.516l8.156-32.624h-251.828zM609.885 23.675v473.055h65.249v-32.624h32.624v32.624h32.624v-521.991h-32.624v456.742h-32.624v-456.742h-16.312c-26.985 0-48.937 21.959-48.937 48.937zM854.568-25.262h-81.561v521.991h130.498v-473.055c0-26.977-21.959-48.937-48.937-48.937zM936.129 545.666c0-8.984-7.328-16.312-16.312-16.312h-326.245c-8.992 0-16.312 7.328-16.312 16.312v32.624c0 8.992 7.32 16.312 16.312 16.312h326.245c8.984 0 16.312-7.32 16.312-16.312z" />
<glyph unicode="&#xe931;" glyph-name="drainage" d="M874.039 810.039c-96.703 96.703-225.281 149.961-362.039 149.961-104.063 0-204.25-31.070-289.734-89.844-9.102-6.266-11.406-18.711-5.148-27.813 6.258-9.109 18.711-11.406 27.813-5.156 78.789 54.18 171.141 82.813 267.070 82.813 260.258 0 472-211.742 472-472s-211.742-472-472-472c-260.266 0-472 211.742-472 472 0 95.945 28.633 188.289 82.797 267.063 6.258 9.102 3.953 21.547-5.148 27.805s-21.555 3.961-27.813-5.141c-58.766-85.469-89.836-185.656-89.836-289.727 0-136.758 53.258-265.336 149.961-362.039s225.281-149.961 362.039-149.961 265.336 53.258 362.039 149.961c96.703 96.703 149.961 225.281 149.961 362.039s-53.258 265.336-149.961 362.039zM834.906 224.828c9.383-5.813 21.711-2.914 27.531 6.469 40.273 64.992 61.563 139.93 61.563 216.703 0 227.18-184.828 412-412 412-227.18 0-412-184.82-412-412s184.82-412 412-412c76.781 0 151.711 21.289 216.688 61.555 9.391 5.82 12.289 18.148 6.469 27.539-5.82 9.383-18.141 12.281-27.539 6.461-58.648-36.344-126.289-55.555-195.625-55.555-205.117 0-371.992 166.875-371.992 372s166.875 372 372 372c205.117 0 372-166.875 372-372 0-69.32-19.211-136.969-55.563-195.633-5.82-9.391-2.922-21.719 6.469-27.539zM512 548c-55.141 0-100-44.859-100-100s44.859-100 100-100 100 44.859 100 100-44.859 100-100 100zM512 508c26.070 0 48.305-16.719 56.555-40h-113.117c8.258 23.281 30.492 40 56.563 40zM512 388c-26.070 0-48.305 16.719-56.563 40h113.117c-8.25-23.281-30.484-40-56.555-40zM512 784c-55.141 0-100-44.859-100-100s44.859-100 100-100 100 44.859 100 100-44.859 100-100 100zM512 624c-33.086 0-60 26.914-60 60s26.914 60 60 60c33.078 0 60-26.914 60-60s-26.922-60-60-60zM357.617 652.602c-47.758 27.57-109.031 11.148-136.602-36.602s-11.148-109.031 36.602-136.602c15.406-8.898 32.508-13.438 49.836-13.438 8.688 0 17.438 1.141 26.047 3.445 25.797 6.914 47.367 23.461 60.719 46.594 27.57 47.75 11.148 109.031-36.602 136.602zM359.578 536c-8.008-13.875-20.953-23.805-36.43-27.953-15.484-4.156-31.648-2.023-45.531 5.992-28.648 16.539-38.5 53.305-21.961 81.961 11.102 19.227 31.313 29.984 52.063 29.984 10.172 0 20.477-2.586 29.898-8.023 28.648-16.547 38.5-53.313 21.961-81.961zM333.5 426.594c-25.805 6.914-52.75 3.367-75.883-9.992-47.75-27.57-64.172-88.852-36.602-136.602 18.5-32.047 52.18-49.977 86.773-49.977 16.953 0 34.125 4.305 49.828 13.375 47.75 27.57 64.172 88.852 36.602 136.602-13.352 23.133-34.922 39.68-60.719 46.594zM337.617 278.039c-28.648-16.539-65.422-6.688-81.961 21.961-16.539 28.656-6.688 65.422 21.961 81.961 9.25 5.336 19.508 8.063 29.906 8.063 5.211 0 10.453-0.68 15.625-2.070 15.477-4.148 28.422-14.070 36.43-27.953 16.539-28.648 6.688-65.414-21.961-81.961zM512 312c-55.141 0-100-44.859-100-100s44.859-100 100-100 100 44.859 100 100-44.859 100-100 100zM512 152c-33.086 0-60 26.914-60 60s26.914 60 60 60c33.078 0 60-26.914 60-60s-26.922-60-60-60zM766.383 416.602c-23.133 13.359-50.078 16.906-75.883 9.992-25.797-6.914-47.367-23.461-60.719-46.594-27.57-47.75-11.148-109.031 36.602-136.602 15.711-9.070 32.875-13.375 49.836-13.375 34.578 0 68.266 17.938 86.766 49.977 27.57 47.75 11.148 109.031-36.602 136.602zM768.344 300c-16.547-28.648-53.313-38.5-81.961-21.961s-38.508 53.313-21.961 81.961c8.016 13.875 20.953 23.805 36.43 27.953 5.172 1.391 10.414 2.070 15.625 2.070 10.398 0 20.664-2.727 29.906-8.063 28.648-16.539 38.5-53.305 21.961-81.961zM802.984 616c-27.57 47.75-88.852 64.172-136.602 36.602s-64.172-88.852-36.602-136.602c13.352-23.133 34.914-39.68 60.719-46.594 8.609-2.305 17.359-3.453 26.039-3.453 17.328 0 34.43 4.547 49.844 13.445 47.75 27.57 64.172 88.852 36.602 136.602zM746.383 514.039c-13.883-8.016-30.055-10.141-45.531-5.992s-28.422 14.070-36.43 27.953c-16.547 28.648-6.695 65.422 21.961 81.961 9.422 5.445 19.719 8.023 29.891 8.023 20.75 0 40.969-10.758 52.063-29.984 16.547-28.656 6.695-65.422-21.953-81.961zM164.102 775.898c4.828 0 9.672 1.734 13.516 5.258 8.141 7.461 8.695 20.109 1.227 28.258-7.461 8.133-20.109 8.688-28.258 1.227l-0.008-0.016c-8.141-7.461-8.688-20.109-1.227-28.25 3.945-4.297 9.336-6.477 14.75-6.477zM775.672 185.555l-0.016-0.008c-8.141-7.461-8.688-20.109-1.219-28.25 3.945-4.305 9.336-6.484 14.742-6.484 4.836 0 9.68 1.742 13.516 5.258 8.148 7.461 8.695 20.117 1.234 28.258s-20.117 8.695-28.258 1.227z" />
<glyph unicode="&#xe932;" glyph-name="home-repair" d="M1003.312 459.312l-480 480c-2.895 2.894-6.895 4.685-11.312 4.685s-8.417-1.79-11.312-4.685l-480-480c-2.894-2.895-4.685-6.895-4.685-11.312 0-8.835 7.161-15.998 15.996-16h80v-384h-16c-8.837 0-16-7.163-16-16v0-64c0-8.837 7.163-16 16-16v0h832c8.837 0 16 7.163 16 16v0 64c0 8.837-7.163 16-16 16v0h-16v384h80c8.835 0.002 15.997 7.165 15.997 16 0 4.417-1.79 8.417-4.685 11.312v0zM912-16h-800v32h800zM144 48v393.376l368 368 368-368v-393.376zM902.624 464l-379.312 379.312c-2.895 2.894-6.895 4.685-11.312 4.685s-8.417-1.79-11.312-4.685l-379.312-379.312h-50.752l441.376 441.376 441.376-441.376zM656 336h-80v48c0 8.837-7.163 16-16 16v0h-96c-8.837 0-16-7.163-16-16v0-48h-80c-26.51 0-48-21.49-48-48v0-64c0-8.837 7.163-16 16-16v0h16v-112c0-8.837 7.163-16 16-16v0h288c8.837 0 16 7.163 16 16v0 112h16c8.837 0 16 7.163 16 16v0 64c0 26.51-21.49 48-48 48v0zM480 368h64v-32h-64zM640 112h-256v96h80v-48c0-8.837 7.163-16 16-16v0h64c8.837 0 16 7.163 16 16v0 48h80zM496 208h32v-32h-32zM672 240h-320v48c0 8.837 7.163 16 16 16v0h288c8.837 0 16-7.163 16-16v0zM736 464h-57.248c-8.837 0-16 7.163-16 16s7.163 16 16 16v0h57.248c8.833 0.005 15.992 7.166 15.992 16 0 2.315-0.492 4.515-1.376 6.502l0.040-0.102c-15.159 34.182-48.795 57.594-87.899 57.594-35.323 0-66.184-19.102-82.816-47.54l-0.245-0.454h-128.64c-16.877 28.891-47.738 47.994-83.061 47.994-39.104 0-72.74-23.412-87.657-56.983l-0.242-0.611c-0.844-1.885-1.336-4.085-1.336-6.4 0-8.834 7.159-15.995 15.991-16h57.248c8.837 0 16-7.163 16-16s-7.163-16-16-16v0h-57.248c-8.833-0.005-15.992-7.166-15.992-16 0-2.315 0.492-4.515 1.376-6.502l-0.040 0.102c15.159-34.182 48.795-57.594 87.899-57.594 35.323 0 66.184 19.102 82.816 47.54l0.245 0.454h128.64c16.877-28.891 47.738-47.994 83.061-47.994 39.104 0 72.74 23.412 87.657 56.983l0.242 0.611c0.844 1.885 1.336 4.085 1.336 6.4 0 8.834-7.159 15.995-15.991 16v0zM662.752 416c-26.061 0.027-48.471 15.627-58.43 37.993l-0.162 0.407c-2.531 5.696-8.138 9.597-14.656 9.6h-148.256c-6.518-0.003-12.125-3.904-14.616-9.498l-0.040-0.102c-10.093-22.775-32.501-38.374-58.551-38.374-16.232 0-31.049 6.056-42.316 16.033l0.067-0.058h26.208c26.51 0 48 21.49 48 48s-21.49 48-48 48v0h-26.256c11.199 9.918 26.017 15.974 42.249 15.974 26.051 0 48.458-15.6 58.39-37.967l0.161-0.407c2.531-5.696 8.138-9.597 14.656-9.6h148.256c6.518 0.003 12.125 3.904 14.616 9.498l0.040 0.102c10.093 22.775 32.501 38.374 58.551 38.374 16.232 0 31.049-6.056 42.316-16.033l-0.067 0.058h-26.24c-26.51 0-48-21.49-48-48s21.49-48 48-48v0h26.24c-11.173-9.912-25.956-15.974-42.155-16h-0.005z" />
<glyph unicode="&#xe933;" glyph-name="search-1" d="M282.734 726.964c-14.768 14.78-38.728 14.78-53.496 0-54.832-54.832-81.782-131.216-73.95-209.58 1.954-19.522 18.4-34.074 37.606-34.074 1.262 0 2.534 0.064 3.796 0.19 20.796 2.080 35.966 20.632 33.886 41.414-5.574 55.69 13.444 109.84 52.158 148.556 14.78 14.766 14.78 38.728 0 53.494zM432.552 960c-238.51 0-432.552-194.042-432.552-432.552s194.042-432.552 432.552-432.552 432.552 194.042 432.552 432.552-194.044 432.552-432.552 432.552zM432.552 170.562c-196.792 0-356.886 160.094-356.886 356.886s160.094 356.886 356.886 356.886c196.78 0 356.886-160.094 356.886-356.886s-160.094-356.886-356.886-356.886zM1012.916 0.58l-274.918 274.916c-14.78 14.78-38.716 14.78-53.496 0-14.78-14.768-14.78-38.728 0-53.496l274.918-274.916c7.39-7.39 17.062-11.084 26.748-11.084s19.358 3.694 26.748 11.084c14.778 14.768 14.778 38.728 0 53.496z" />
<glyph unicode="&#xe934;" glyph-name="tap" d="M915.42 89.71l-65.176 126.174c-3.47 6.718-10.396 10.938-17.956 10.94-0.004 0-0.006 0-0.008 0-7.556 0-14.484-4.214-17.956-10.926-44.902-86.764-68.070-131.634-68.86-133.36-5.74-12.534-8.65-25.89-8.65-39.698 0-52.642 42.826-95.468 95.466-95.468s95.468 42.826 95.468 95.468c0 15.424-3.898 30.282-12.268 46.752-0.018 0.038-0.040 0.078-0.060 0.118zM832.28-12.192c-30.342 0-55.028 24.686-55.028 55.030 0 7.872 1.638 15.484 4.874 22.63 2.148 4.282 26.958 52.29 50.142 97.106l47.192-91.358c5.43-10.7 7.852-19.456 7.852-28.378-0.002-30.342-24.686-55.030-55.032-55.030zM768.332 272.728l118.964 52.7c18.798 8.328 33.096 23.528 40.262 42.798 7.164 19.27 6.27 40.118-2.522 58.704l-25.376 53.656c-4.68 9.896-16.378 14.268-26.404 9.87l-22.586-9.912-34.916 69.784c-59.504 119.094-207.608 170.978-328.464 114.676l-124.032-56.922v131.298l20.39 78.074c3.062 7.998 10.772 13.326 19.39 13.326h229.164c81.578 0 131.252 95.754 133.328 99.83 3.19 6.268 2.894 13.744-0.782 19.74-3.674 5.996-10.202 9.65-17.236 9.65h-487.16c-10.164 0-20.614-0.49-31.060-1.458-40.974-3.794-71.876-37.852-71.876-79.216v-137.31c0-0.034 0.004-0.066 0.006-0.1v-267.034c0-11.166 9.052-20.22 20.22-20.22 11.166 0 20.22 9.052 20.22 20.22v246.91h124.958v-145.234c0-6.888 3.506-13.302 9.304-17.020 5.798-3.72 13.092-4.23 19.348-1.356l152.788 70.12c101.302 47.192 225.432 3.794 275.324-96.056l34.006-67.968-111.752-49.038-36.908 66.404c-23.344 42.022-75.492 58.43-118.73 37.348l-212.026-103.438c-6.946-3.388-11.354-10.442-11.354-18.172v-327.792h-124.96v227.552c0 11.166-9.052 20.22-20.22 20.22-11.166 0-20.22-9.052-20.22-20.22v-227.596c-36.416-0.89-65.77-30.768-65.77-67.394v-45.932c0-11.166 9.052-20.22 20.22-20.22h300.904c11.166 0 20.22 9.052 20.22 20.22v45.932c0 37.186-30.252 67.438-67.438 67.438h-2.3v315.16l200.67 97.898c23.914 11.656 52.75 2.592 65.656-20.644l35.062-63.084-10.784-4.732c-4.926-2.162-8.788-6.2-10.732-11.218-1.94-5.018-1.802-10.604 0.386-15.52l25.074-56.324c12.522-28.124 40.246-44.87 69.236-44.87 10.216-0.002 20.59 2.078 30.508 6.472zM197.856 879.326c0 20.348 15.12 37.092 35.168 38.95 9.21 0.854 18.406 1.286 27.33 1.286h449.578c-17.308-22.014-44.882-48.344-77.728-48.344h-229.164c-26.052 0-49.29-16.53-57.822-41.132-0.174-0.5-0.326-1.004-0.46-1.516l-17.324-66.332h-129.578zM392.556 2.15v-25.712h-260.466v25.712c0 14.886 12.112 26.998 26.998 26.998h206.468c14.888 0.002 27-12.11 27-26.998zM705.532 327.57l-16.808 37.754 182.782 80.204 16.974-35.886c4.092-8.65 4.508-18.352 1.174-27.322-3.334-8.968-9.99-16.042-18.74-19.918l-118.964-52.7c-17.714-7.85-38.538 0.166-46.418 17.868zM158.974 379.872c6.79-16.578 31.126-16.146 37.522 0.46 6.758 17.544-13.124 34.268-29.248 24.612-8.474-5.074-12.072-15.958-8.274-25.072z" />
<glyph unicode="&#xe935;" glyph-name="manifold" d="M1024 558c0-11.046-8.954-20-20-20s-20 8.954-20 20c0 11.046 8.954 20 20 20s20-8.954 20-20zM1018.14 722.14c-3.72 3.72-8.88 5.86-14.14 5.86h-80c-5.26 0-10.42-2.14-14.14-5.86s-5.86-8.88-5.86-14.14v-8h-80v60c0 55.14-44.86 100-100 100s-100-44.86-100-100v-60h-224v60c0 55.14-44.86 100-100 100s-100-44.86-100-100v-60h-80v8c0 11.046-8.954 20-20 20h-80c-11.046 0-20-8.954-20-20v-320c0-11.046 8.954-20 20-20h80c11.046 0 20 8.954 20 20v8h92v-80.054c-24.272-18.262-40-47.3-40-79.946s15.728-61.684 40-79.946v-100.054c0-11.046 8.954-20 20-20h80c11.046 0 20 8.954 20 20v100.054c24.272 18.262 40 47.3 40 79.946 0 20.352-6.126 39.292-16.61 55.106l1.752 1.752c7.81 7.81 7.81 20.474 0 28.286-6.832 6.834-17.38 7.688-25.142 2.566v72.29h120v-72.292c-7.762 5.122-18.31 4.268-25.142-2.566-7.81-7.81-7.81-20.474 0-28.286l1.752-1.752c-10.484-15.812-16.61-34.752-16.61-55.104 0-32.646 15.728-61.684 40-79.946v-100.054c0-11.046 8.954-20 20-20h80c11.046 0 20 8.954 20 20v100.054c24.272 18.262 40 47.3 40 79.946s-15.728 61.684-40 79.946v80.054h120v-80.054c-24.272-18.262-40-47.3-40-79.946s15.728-61.684 40-79.946v-100.054c0-11.046 8.954-20 20-20h80c11.046 0 20 8.954 20 20v100.054c24.272 18.262 40 47.3 40 79.946 0 20.352-6.126 39.292-16.61 55.106l1.752 1.752c7.81 7.81 7.81 20.474 0 28.286-6.832 6.834-17.38 7.688-25.142 2.566v72.29h92v-8c0-5.26 2.14-10.42 5.86-14.14s8.88-5.86 14.14-5.86h80c5.26 0 10.42 2.14 14.14 5.86s5.86 8.88 5.86 14.14v80c0 11.020-8.98 20-20 20s-20-8.98-20-20v-60h-40v280h40v-40c0-11.020 8.98-20 20-20s20 8.98 20 20v60c0 5.26-2.14 10.42-5.86 14.14zM80 408h-40v280h40zM664 760c0 33.084 26.916 60 60 60s60-26.916 60-60v-60h-120zM240 760c0 33.084 26.916 60 60 60s60-26.916 60-60v-60h-120zM292 76h-40v62.012c6.464-1.318 13.152-2.012 20-2.012s13.536 0.694 20 2.012zM272 176c-33.084 0-60 26.916-60 60s26.916 60 60 60c9.252 0 18.018-2.108 25.852-5.864l-39.994-39.994c-7.81-7.81-7.81-20.474 0-28.286 3.906-3.906 9.024-5.858 14.142-5.858s10.238 1.952 14.142 5.858l39.994 39.994c3.756-7.834 5.864-16.6 5.864-25.852 0-33.082-26.916-59.998-60-59.998zM252 333.988v62.012h40v-62.012c-6.464 1.318-13.152 2.012-20 2.012s-13.536-0.694-20-2.012zM532 76h-40v62.012c6.464-1.318 13.152-2.012 20-2.012s13.536 0.694 20 2.012zM512 176c-33.084 0-60 26.916-60 60 0 9.25 2.108 18.018 5.864 25.852l39.994-39.994c3.906-3.906 9.024-5.858 14.142-5.858s10.238 1.952 14.142 5.858c7.81 7.81 7.81 20.474 0 28.286l-39.994 39.994c7.834 3.756 16.6 5.864 25.852 5.864 33.084 0 60-26.916 60-60s-26.916-60.002-60-60.002zM492 333.988v62.012h40v-62.012c-6.464 1.318-13.152 2.012-20 2.012s-13.536-0.694-20-2.012zM772 76h-40v62.012c6.464-1.318 13.152-2.012 20-2.012s13.536 0.694 20 2.012zM752 176c-33.084 0-60 26.916-60 60s26.916 60 60 60c9.252 0 18.018-2.108 25.852-5.864l-39.994-39.994c-7.81-7.81-7.81-20.474 0-28.286 3.906-3.906 9.024-5.858 14.142-5.858s10.238 1.952 14.142 5.858l39.994 39.994c3.756-7.834 5.864-16.6 5.864-25.852 0-33.082-26.916-59.998-60-59.998zM732 333.988v62.012h40v-62.012c-6.464 1.318-13.152 2.012-20 2.012s-13.536-0.694-20-2.012zM904 436h-784v224h784zM320 760c0-11.046-8.954-20-20-20s-20 8.954-20 20c0 11.046 8.954 20 20 20s20-8.954 20-20zM744 760c0-11.046-8.954-20-20-20s-20 8.954-20 20c0 11.046 8.954 20 20 20s20-8.954 20-20z" />
<glyph unicode="&#xe936;" glyph-name="tool" d="M639.078 935.97c2.044 9.199-3.755 18.314-12.954 20.361-82.795 18.229-164.739-33.938-183.262-116.668l-18.483-83.319c-9.887-48.619-16.49-97.848-19.763-147.354-4.745-55.398-8.858-103.219-25.054-135.646-15.889-31.795-119.159-183.723-187.511-284.262-20.224-29.747-38.451-56.508-52.258-77.073-16.937-25.148-23.043-56.052-16.943-85.752s23.892-55.695 49.37-72.132l0.649-0.444c18.019-11.539 38.967-17.675 60.365-17.681 9.162 0.015 18.289 1.126 27.187 3.311 30.038 7.251 55.751 26.58 71.066 53.419 76.971 133.53 231.305 366.114 262.042 379.426 96.034 37.171 259.994 112.265 278.869 197.376l37.001 166.622c18.236 82.777-33.944 164.702-116.668 183.177-9.192 1.973-18.264-3.806-20.361-12.971l-44.373-199.902c-0.979-4.424-3.677-8.277-7.499-10.711s-8.456-3.246-12.878-2.26l-100.079 22.187c-9.134 2.102-14.863 11.176-12.834 20.326zM761.31 699.034l40.431 182.084c55.485-21.085 87.121-79.665 74.325-137.626l-37.001-166.605c-13.090-58.965-141.79-128-257.86-172.954-50.295-19.49-234.359-316.228-279.296-394.24-10.672-18.582-28.444-32.023-49.23-37.231s-42.796-1.737-60.969 9.617l-0.546 0.375c-17.965 11.397-30.552 29.579-34.895 50.406s-0.073 42.525 11.838 60.152c13.824 20.48 32 47.241 52.173 76.954 77.039 113.323 172.902 254.293 189.815 288.188 19.115 38.263 23.484 89.105 28.535 147.985 2.901 33.741 6.195 70.997 12.663 109.346l248.917-55.228c27.557-6.037 54.828 11.271 61.099 38.775zM561.374 743.407c-1.211-5.7-1.424-11.567-0.631-17.34l-103.014 22.869 18.432 83.337c13.004 57.896 66.429 97.552 125.611 93.235zM500.48 659.285c-7.646-4.845-13.041-12.544-14.985-21.385l-14.78-66.56c-1.993-8.853-0.379-18.134 4.486-25.795s12.579-13.068 21.439-15.029l99.942-22.187c8.84-1.967 18.1-0.341 25.741 4.521s13.036 12.562 14.998 21.403l14.797 66.645c4.026 18.398-7.566 36.593-25.941 40.721l-99.942 22.187c-8.843 2.017-18.127 0.387-25.754-4.523zM578.56 617.233l-72.977-46.473 13.244 59.733zM600.32 525.073l3.703 16.64zM604.006 541.73l-59.733 13.261 72.977 46.473z" />
<glyph unicode="&#xe937;" glyph-name="left-quotes-sign" d="M0.218 249.438c0-134.628 109.131-243.759 243.757-243.759 134.628 0 243.759 109.131 243.759 243.759s-109.131 243.757-243.759 243.757c-27.668 0-54.152-4.823-78.946-13.323 54.856 314.613 300.193 517.503 72.766 350.52-252.183-185.165-237.848-573.505-237.566-580.622 0-0.111-0.012-0.21-0.012-0.333zM536.483 249.438c0-134.628 109.131-243.759 243.759-243.759s243.759 109.131 243.759 243.759-109.133 243.757-243.761 243.757c-27.67 0-54.152-4.823-78.946-13.323 54.856 314.613 300.193 517.503 72.766 350.52-252.183-185.165-237.85-573.505-237.566-580.622 0-0.111-0.012-0.21-0.012-0.333z" />
<glyph unicode="&#xe938;" glyph-name="certification" d="M789.427 224.765c49.708 0 90.148 40.44 90.148 90.146 0 49.708-40.44 90.148-90.148 90.148s-90.146-40.44-90.146-90.148c0-49.706 40.438-90.146 90.146-90.146zM789.427 375.060c33.166 0 60.148-26.982 60.148-60.148 0-33.164-26.982-60.146-60.148-60.146-33.164 0-60.146 26.982-60.146 60.146 0 33.166 26.982 60.148 60.146 60.148zM640.259 681.721c8.286 0 15 6.716 15 15s-6.714 15-15 15h-256.519c-8.286 0-15-6.716-15-15s6.714-15 15-15zM591.128 385.586c0 8.286-6.714 15-15 15h-128.259c-8.286 0-15-6.714-15-15s6.714-15 15-15h128.259c8.286 0 15 6.714 15 15zM240.481 634.613c0-8.284 6.714-15 15-15h513.038c8.286 0 15 6.716 15 15s-6.714 15-15 15h-513.038c-8.284 0-15-6.716-15-15zM255.481 557.508h513.038c8.286 0 15 6.714 15 15 0 8.284-6.714 15-15 15h-513.038c-8.286 0-15-6.716-15-15s6.716-15 15-15zM255.481 495.402h513.038c8.286 0 15 6.714 15 15s-6.714 15-15 15h-513.038c-8.286 0-15-6.714-15-15s6.716-15 15-15zM0 833.522v-543.838c0-43.052 35.028-78.080 78.080-78.080h602.844c1.028-0.448 2.062-0.862 3.096-1.254v-197.449c0-10.702 5.906-20.4 15.416-25.312 4.138-2.138 8.624-3.194 13.088-3.194 5.792 0 11.546 1.776 16.474 5.274l60.43 42.884 60.43-42.884c8.728-6.198 20.060-6.986 29.564-2.080 9.508 4.912 15.414 14.612 15.414 25.312v197.447c1.036 0.392 2.070 0.808 3.1 1.256h47.986c43.052 0 78.080 35.028 78.080 78.080v236.919c0 8.286-6.714 15-15 15s-15-6.714-15-15v-236.919c0-26.512-21.568-48.080-48.080-48.080h-24.96c1.504 11.438-0.772 24.060 1.214 30.176 2.896 8.928 21.736 22.724 21.736 43.13 0 13.392-7.972 23.68-14.376 31.944-6.45 8.324-7.304 10.096-7.812 13.202 4.056 0.86 8.198 1.308 12.4 1.308 17.536-0.126 29.878 13.55 29.878 29.164v342.151c0 16.366-13.352 29.342-29.332 29.166-34.232-0.122-60.66 27.314-60.424 60.422 0.142 16.2-12.978 29.334-29.168 29.334h-666.153c-15.264 0-29.23-11.9-29.166-29.876 0.004-32.69-26.27-60.002-60.424-59.88-16.072 0.172-29.334-12.876-29.334-29.166v-342.151c0-15.428 12.146-29.286 29.888-29.164 32.524-0.004 59.992-26.296 59.868-60.422-0.142-16.204 12.978-29.336 29.168-29.336h298.077c8.286 0 15 6.714 15 15s-6.714 15-15 15h-297.243c-0.064 49.464-40.292 89.692-89.758 89.758v340.481c49.584 0.064 89.694 40.158 89.758 89.758h664.483c0.032-23.968 9.378-46.494 26.324-63.44 16.948-16.944 39.47-26.288 63.436-26.318v-340.481c-4.502-0.006-8.964-0.344-13.366-1.010-3.792 21.686-20.002 27.72-36.144 32.464-13.718 4.028-13.818 4.22-21.628 15.69-5.85 8.592-13.13 19.284-25.69 23.362-12.146 3.936-24.098-0.296-33.704-3.706-13.786-4.884-14.3-4.884-28.084 0-7.766 2.756-17.068 6.052-26.766 5.128h-493.138c-8.286 0-15-6.714-15-15s6.714-15 15-15h456.862c-1.732-2.352-3.42-4.374-4.944-5.484-9.106-6.628-38.356-5.818-47.296-30.286-5.314-14.54-0.85-31.562-3.422-39.482-3.462-10.676-30.152-28.722-19.084-56.436h-90.598c-8.286 0-15-6.714-15-15s6.714-15 15-15h109.726c1.904-6.228-0.332-18.602 1.17-30.002h-579.816c-26.512 0-48.080 21.568-48.080 48.080v543.84c0 26.512 21.568 48.080 48.080 48.080h867.841c26.512 0 48.080-21.568 48.080-48.080v-236.919c0-8.284 6.714-15 15-15s15 6.716 15 15v236.919c0 43.054-35.028 78.080-78.080 78.080h-867.841c-43.052 0-78.080-35.026-78.080-78.080zM736.677 31.908l-22.658-16.080v178.359c5.476-7.866 11.83-18.514 22.658-24.12zM812.181 53.198l-6.26 4.442c-0.616 0.438-1.246 0.848-1.888 1.232-4.49 2.682-9.55 4.022-14.606 4.022-5.78 0-11.558-1.75-16.488-5.252l-6.262-4.444v115.568c30.096 8.778 14.226 9.084 45.504 0zM864.835 15.828l-22.654 16.078v138.161c10.816 5.604 17.162 16.232 22.654 24.12zM673.035 328.478c12.684 16.37 14.98 22.782 14.4 44.522-0.414 15.546-0.102 15.812 7.928 18.688 22.292 7.982 28.668 5.328 45.424 29.938 3.242 4.758 7.264 10.66 10.062 11.67 3.282 0 3.218 0.604 14.508-3.402 20.498-7.274 27.746-7.236 48.138 0 5.044 1.79 11.958 4.246 14.41 3.444 2.802-0.908 6.88-6.898 10.16-11.712 11.994-17.608 17.496-21.572 37.966-27.588 16.168-4.75 15.832-4.322 15.386-21.038-0.566-21.738 1.686-28.116 14.4-44.52 10.548-13.614 10.558-13.514 0-27.132-14.486-18.688-14.72-24.294-14.328-47.738 0.272-16.416-0.838-12.338-23.996-20.496-14.96-5.25-20.442-11.712-29.43-24.908-9.8-14.396-9.252-13.686-24.584-8.258-28.496 10.084-32.512 4.304-55.46-2.454-9.132-2.662-8.114-1.91-20.508 15.434-19.406 27.154-39.862 19.812-48.534 28.506-2.098 2.218-1.656 11.332-1.546 15.396 0.458 17.31-0.488 25.232-9.92 38.564-14.108 19.702-16.998 16.934-4.476 33.084z" />
<glyph unicode="&#xe939;" glyph-name="fire-truck" d="M224.506 805.992h31.58v52.95c0 16.554 6.802 31.638 17.69 42.58 10.942 10.884 25.964 17.688 42.576 17.688s31.69-6.802 42.576-17.688c10.942-10.942 17.688-26.026 17.688-42.58v-52.95h75.12v52.95c0 16.554 6.804 31.638 17.69 42.58 10.942 10.884 26.022 17.688 42.576 17.688 16.612 0 31.692-6.802 42.576-17.688 10.942-10.942 17.69-26.026 17.69-42.58v-52.95h75.12v52.95c0 16.554 6.802 31.638 17.688 42.58 10.942 10.884 26.024 17.688 42.578 17.688 16.61 0 31.692-6.802 42.574-17.688 10.944-10.942 17.69-26.026 17.69-42.58v-52.95h31.636c16.952 0 32.372-6.974 43.482-18.086 11.17-11.168 18.086-26.59 18.086-43.54v-19.504h147.914c8.278 0 14.966-6.69 14.966-14.966v-176.146c0-8.28-6.69-15.026-14.966-15.026h-81.358c-8.278 0-14.966 6.746-14.966 15.026v161.122h-51.592v-502.418c4.534-1.984 8.618-4.762 12.076-8.164 6.916-6.972 11.224-16.554 11.224-27.1v-50.286c0-10.602-4.308-20.124-11.224-27.098-6.918-6.918-16.498-11.226-27.042-11.226h-19.958v-41.84c0-13.778-5.612-26.25-14.684-35.32-9.014-9.014-21.542-14.628-35.262-14.628h-82.038c-13.718 0-26.248 5.614-35.262 14.628-9.072 9.070-14.684 21.542-14.684 35.32v41.84h-264.534v-41.84c0-13.778-5.612-26.25-14.624-35.32-9.070-9.014-21.542-14.628-35.32-14.628h-81.98c-13.776 0-26.248 5.614-35.318 14.628-9.016 9.070-14.626 21.542-14.626 35.32v41.84h-19.958c-10.544 0-20.124 4.308-27.1 11.226-6.916 6.972-11.224 16.496-11.224 27.098v50.286c0 10.544 4.308 20.128 11.224 27.1 3.458 3.402 7.542 6.18 12.076 8.164 0 167.472 0 334.946 0 502.418h-51.534v-161.122c0-8.28-6.746-15.026-15.024-15.026h-81.3c-8.276 0-15.024 6.746-15.024 15.026v176.146c0 8.278 6.748 14.966 15.024 14.966h147.858v19.504c0 16.95 6.916 32.372 18.086 43.54 11.166 11.112 26.586 18.086 43.538 18.086zM677.376 805.992h60.548v52.95c0 8.278-3.402 15.876-8.902 21.376-5.498 5.498-13.040 8.9-21.372 8.9-8.278 0-15.876-3.402-21.376-8.9-5.442-5.502-8.9-13.1-8.9-21.376v-52.95zM481.726 805.992h60.546v52.95c0 8.278-3.4 15.876-8.9 21.376-5.498 5.498-13.040 8.9-21.372 8.9-8.278 0-15.876-3.402-21.372-8.9-5.5-5.502-8.9-13.1-8.9-21.376v-52.95zM286.076 805.992h60.548v52.95c0 8.278-3.402 15.876-8.9 21.376-5.5 5.498-13.040 8.9-21.374 8.9-8.278 0-15.876-3.402-21.372-8.9-5.5-5.502-8.902-13.1-8.902-21.376zM994.010 694.872h-51.31v-146.154h51.31zM81.356 694.872h-51.366v-146.154h51.366zM527.024 694.872v-189.468h114.068c8.278 0 14.966-6.746 14.966-15.024s-6.69-14.968-14.966-14.968h-448.22v-119.396h84.986c7.992 0 15.194-3.23 20.464-8.448 5.214-5.272 8.504-12.53 8.504-20.522v-68.486c0-7.994-3.29-15.25-8.504-20.466-5.272-5.272-12.472-8.504-20.464-8.504h-84.986v-34.072h156.874c0 58.224 0 116.448 0 174.674 0 13.718 5.612 26.248 14.682 35.264 9.014 9.070 21.544 14.684 35.264 14.684h224.622c13.778 0 26.25-5.614 35.32-14.684 9.014-9.016 14.624-21.544 14.624-35.264v-174.674h156.874v34.072h-84.928c-7.994 0-15.25 3.232-20.466 8.504-5.272 5.216-8.504 12.472-8.504 20.466v68.486c0 7.992 3.232 15.25 8.504 20.522 5.216 5.216 12.472 8.448 20.466 8.448h84.928v119.396h-122.12c-8.278 0-14.966 6.692-14.966 14.968 0 8.278 6.69 15.024 14.966 15.024h122.12v189.468zM497.034 505.402v189.468h-122.912c-8.278 0-14.966 6.746-14.966 15.026 0 8.278 6.69 14.966 14.966 14.966h457.008v19.504c0 8.672-3.572 16.552-9.3 22.336-5.724 5.726-13.606 9.242-22.28 9.242-191.682 0-383.364 0-575.044 0-8.674 0-16.612-3.516-22.336-9.242-5.726-5.784-9.298-13.664-9.298-22.336v-19.504h113.332c8.278 0 14.966-6.69 14.966-14.966 0-8.28-6.69-15.026-14.966-15.026h-113.332v-189.468zM831.13 326.024h-83.91v-66.444h83.908v66.444zM276.836 326.024h-83.964v-66.444h83.964zM644.268 315.648h-264.536v-45.694h98.308c8.278 0 15.024-6.748 15.024-15.024 0-8.278-6.746-14.968-15.024-14.968h-98.308v-44.448h264.536v44.448h-98.308c-8.278 0-14.966 6.692-14.966 14.968s6.69 15.024 14.966 15.024h98.308zM379.732 345.696h264.536v24.494c0 5.444-2.27 10.432-5.84 14.060-3.628 3.628-8.618 5.894-14.118 5.894h-224.62c-5.442 0-10.432-2.268-14.060-5.894-3.626-3.63-5.896-8.618-5.896-14.060v-24.494zM796.206 68.578h-121.95v-41.84c0-5.5 2.27-10.488 5.898-14.118 3.628-3.628 8.618-5.84 14.058-5.84h82.038c5.442 0 10.432 2.21 14.058 5.84 3.63 3.63 5.896 8.618 5.896 14.118v41.84zM349.744 68.578h-121.892v-41.84c0-5.5 2.212-10.488 5.84-14.118 3.626-3.628 8.618-5.84 14.116-5.84h81.98c5.5 0 10.488 2.21 14.118 5.84 3.57 3.63 5.84 8.618 5.84 14.118v41.84zM846.152 165.524h-668.248c-2.268 0-4.366-0.962-5.838-2.494-1.532-1.474-2.496-3.572-2.496-5.84v-50.286c0-2.266 0.964-4.364 2.496-5.894 1.472-1.474 3.57-2.438 5.838-2.438h668.248c2.268 0 4.308 0.962 5.84 2.438 1.53 1.532 2.438 3.628 2.438 5.894v50.286c0 2.268-0.908 4.366-2.438 5.84-1.532 1.53-3.572 2.494-5.84 2.494z" />
<glyph unicode="&#xe93a;" glyph-name="like" d="M692 960c-11.044 0-20-8.956-20-20v-92c0-11.044 8.956-20 20-20s20 8.956 20 20v92c0 11.044-8.956 20-20 20zM232 336c-11.040 0-20-8.96-20-20s8.96-20 20-20 20 8.96 20 20c0 11.040-8.96 20-20 20zM972 376c0 44.112-35.888 80-80 80h-149.304c23.114 59.206 32.47 128.894 30.666 190.928-0.344 11.838-0.798 18.684-1.412 22.994-1.034 43.214-36.518 78.078-79.95 78.078-44.112 0-80-35.888-80-80v-20c0-126.492-162.428-197.562-285.008-228.038-9.268 21.188-30.424 36.038-54.992 36.038h-200c-11.044 0-20-8.956-20-20v-480c0-11.044 8.956-20 20-20h200c24.404 0 45.438 14.654 54.802 35.618 10.15-2.604 19.572-5.064 28.27-7.336 69.83-18.238 108.296-28.282 201.848-28.282h215.080c44.112 0 80 35.888 80 80 0 16.448-4.994 31.748-13.54 44.476 30.896 10.806 53.54 40.326 53.54 75.524 0 16.388-4.872 31.738-13.392 44.524 30.76 10.824 53.392 40.276 53.392 75.476 0 16.448-4.994 31.748-13.54 44.476 30.896 10.806 53.54 40.326 53.54 75.524zM292-4c0-11.028-8.972-20-20-20h-180v440h180c11.028 0 20-8.972 20-20v-400zM892 336c-42.898 0-53.124 0-100 0-11.044 0-20-8.956-20-20s8.956-20 20-20h60c22.056 0 40-17.944 40-40 0-22.092-17.908-40-40-40h-100c-11.044 0-20-8.956-20-20s8.956-20 20-20h60c21.794 0 40-17.41 40-40 0-22.092-17.908-40-40-40-42.898 0-53.124 0-100 0-11.044 0-20-8.956-20-20s8.956-20 20-20h60c22.056 0 40-17.944 40-40s-17.944-40-40-40h-215.080c-88.414 0-122.946 9.018-191.74 26.984-10.078 2.632-21.132 5.518-33.18 8.59v368.376c144.736 34.476 320 118.628 320 268.050v20c0 22.056 17.944 40 40 40 22.016 0 39.958-17.916 40-39.938v-0.062c0-8.692 10.848-115.366-32.652-212h-67.348c-11.044 0-20-8.956-20-20s8.956-20 20-20c13.966 0 237.204 0 260 0 22.056 0 40-17.944 40-40 0-22.092-17.908-40-40-40zM232 256c-11.044 0-20-8.956-20-20v-160c0-11.044 8.956-20 20-20s20 8.956 20 20v160c0 11.044-8.956 20-20 20zM532 708h-80c-11.044 0-20-8.956-20-20s8.956-20 20-20h80c11.044 0 20 8.956 20 20s-8.956 20-20 20zM932 708h-80c-11.044 0-20-8.956-20-20s8.956-20 20-20h80c11.044 0 20 8.956 20 20s-8.956 20-20 20zM875.842 871.842c-7.812 7.808-20.472 7.808-28.286 0l-56.558-56.558c-7.81-7.81-7.81-20.474 0-28.286 7.814-7.81 20.472-7.808 28.286 0l56.558 56.558c7.81 7.81 7.81 20.474 0 28.286zM593.002 815.284l-56.558 56.558c-7.812 7.808-20.472 7.808-28.286 0-7.81-7.81-7.81-20.474 0-28.286l56.558-56.558c7.816-7.81 20.474-7.808 28.286 0 7.81 7.81 7.81 20.474 0 28.286z" />
<glyph unicode="&#xe93b;" glyph-name="skills" d="M586.070 853.977c-6.51 5.122-15.933 3.989-21.047-2.518l-42.723-54.335-21.965 25.077c-5.454 6.228-14.922 6.851-21.151 1.399-6.228-5.454-6.855-14.926-1.399-21.151l27.785-31.722c4.383-5.005 10.563-7.843 17.030-7.843 0.198 0 0.394 0.004 0.59 0.008 6.705 0.18 12.997 3.392 17.258 8.812l48.141 61.226c5.116 6.508 3.989 15.933-2.518 21.047zM897.919 857.185h-255.772c-8.28 0-14.99-6.709-14.99-14.99s6.709-14.99 14.99-14.99h255.772c8.28 0 14.99 6.709 14.99 14.99s-6.709 14.99-14.99 14.99zM897.919 792.865h-255.772c-8.28 0-14.99-6.709-14.99-14.99s6.709-14.99 14.99-14.99h255.772c8.28 0 14.99 6.709 14.99 14.99s-6.709 14.99-14.99 14.99zM586.070 673.046c-6.51 5.122-15.933 3.989-21.047-2.518l-42.723-54.337-21.965 25.077c-5.454 6.228-14.922 6.853-21.151 1.399s-6.855-14.926-1.399-21.151l27.785-31.722c4.383-5.005 10.563-7.843 17.030-7.843 0.198 0 0.394 0.004 0.59 0.008 6.705 0.18 12.997 3.392 17.258 8.812l48.141 61.226c5.116 6.508 3.989 15.933-2.518 21.049zM897.919 676.252h-255.772c-8.28 0-14.99-6.709-14.99-14.99s6.709-14.99 14.99-14.99h255.772c8.28 0 14.99 6.709 14.99 14.99s-6.709 14.99-14.99 14.99zM897.919 611.934h-255.772c-8.28 0-14.99-6.709-14.99-14.99s6.709-14.99 14.99-14.99h255.772c8.28 0 14.99 6.709 14.99 14.99s-6.709 14.99-14.99 14.99zM586.070 492.115c-6.51 5.122-15.933 3.991-21.047-2.518l-42.723-54.335-21.965 25.075c-5.454 6.23-14.926 6.855-21.151 1.399-6.228-5.454-6.855-14.926-1.399-21.151l27.783-31.718c4.381-5.007 10.563-7.845 17.032-7.845 0.196 0 0.39 0.002 0.584 0.008 6.705 0.176 12.999 3.386 17.264 8.81l48.141 61.226c5.116 6.508 3.989 15.933-2.518 21.049zM897.919 495.32h-255.772c-8.28 0-14.99-6.709-14.99-14.99s6.709-14.99 14.99-14.99h255.772c8.28 0 14.99 6.709 14.99 14.99s-6.709 14.99-14.99 14.99zM897.919 431.001h-255.772c-8.28 0-14.99-6.709-14.99-14.99s6.709-14.99 14.99-14.99h255.772c8.28 0 14.99 6.709 14.99 14.99s-6.709 14.99-14.99 14.99zM586.070 311.181c-6.51 5.122-15.933 3.991-21.047-2.518l-42.723-54.335-21.965 25.075c-5.454 6.23-14.926 6.855-21.151 1.399-6.228-5.454-6.855-14.926-1.399-21.151l27.783-31.718c4.381-5.007 10.563-7.845 17.032-7.845 0.196 0 0.39 0.002 0.584 0.008 6.705 0.176 12.999 3.386 17.264 8.81l48.141 61.226c5.116 6.51 3.989 15.935-2.518 21.049zM897.919 314.389h-255.772c-8.28 0-14.99-6.709-14.99-14.99s6.709-14.99 14.99-14.99h255.772c8.28 0 14.99 6.709 14.99 14.99s-6.709 14.99-14.99 14.99zM912.909 235.080c0 8.28-6.709 14.99-14.99 14.99h-255.772c-8.28 0-14.99-6.709-14.99-14.99s6.709-14.99 14.99-14.99h255.772c8.28 0 14.99 6.709 14.99 14.99zM586.070 130.25c-6.51 5.122-15.933 3.991-21.047-2.518l-42.723-54.335-21.965 25.075c-5.454 6.23-14.926 6.857-21.151 1.399-6.228-5.454-6.855-14.926-1.399-21.151l27.783-31.718c4.381-5.007 10.563-7.845 17.032-7.845 0.196 0 0.39 0.002 0.584 0.008 6.705 0.176 12.999 3.386 17.264 8.81l48.141 61.226c5.116 6.508 3.989 15.933-2.518 21.049zM744.167 133.456h-102.020c-8.28 0-14.99-6.709-14.99-14.99s6.709-14.99 14.99-14.99h102.020c8.28 0 14.99 6.709 14.99 14.99s-6.709 14.99-14.99 14.99zM744.167 69.138h-102.020c-8.28 0-14.99-6.709-14.99-14.99s6.709-14.99 14.99-14.99h102.020c8.28 0 14.99 6.709 14.99 14.99s-6.709 14.99-14.99 14.99zM956.359 960h-90.604c-8.28 0-14.99-6.709-14.99-14.99s6.709-14.99 14.99-14.99h90.604c2.756 0 4.997-2.24 4.997-4.997v-817.618h-97.904c-26.939 0-48.858-21.917-48.858-48.856v-92.228h-480.916c6.456 10.079 10.219 22.043 10.219 34.874v251.617c7.833-4.055 16.738-6.362 26.188-6.362 30.623 0 55.538 24.915 55.538 55.54v145.016c0 43.102-13.699 84.016-39.615 118.32-25.061 33.173-60.686 57.99-100.313 69.88-1.769 0.532-3.004 2.25-3.004 4.181v11.53c49.51 21.779 84.182 71.273 84.182 128.739 0 58.532-35.963 108.803-86.946 129.928v15.439c0 2.756 2.24 4.997 4.997 4.997h511.383c8.28 0 14.99 6.709 14.99 14.99s-6.709 14.99-14.99 14.99h-511.385c-19.285 0-34.976-15.691-34.976-34.976v-6.813c-7.699 1.311-15.597 2.031-23.664 2.031-77.521 0-140.589-63.069-140.589-140.589 0-59.655 37.364-110.716 89.904-131.1v-9.168c0-1.931-1.235-3.649-3.004-4.181-20.894-6.272-40.494-15.943-58.254-28.748-6.715-4.843-8.234-14.21-3.394-20.928 4.843-6.715 14.21-8.23 20.928-3.392 15.048 10.851 31.648 19.043 49.336 24.353 14.35 4.301 24.369 17.83 24.369 32.895v1.215c6.759-1.001 13.671-1.537 20.704-1.537 9.036 0 17.862 0.889 26.428 2.526v-2.204c0-15.066 10.023-28.594 24.369-32.895 33.567-10.073 63.756-31.111 85.005-59.237 21.953-29.058 33.557-63.722 33.557-100.249v-145.016c0-14.094-11.464-25.56-25.558-25.56-13.143 0-24.389 9.833-26.188 22.137v167.337c0 8.28-6.709 14.99-14.99 14.99s-14.99-6.709-14.99-14.99v-464.706c0-19.229-15.645-34.874-34.874-34.874s-34.874 15.645-34.874 34.874v270.434c0 8.278-6.709 14.988-14.988 14.99-0.002 0 0 0-0.002 0-8.276 0-14.988-6.707-14.99-14.986l-0.068-270.438c0-19.229-15.645-34.874-34.874-34.874s-34.874 15.645-34.874 34.874v467.258c0 8.28-6.709 14.99-14.99 14.99s-14.99-6.709-14.99-14.99l-0.118-165.126c0-14.328-12.184-26.897-26.070-26.897-14.094 0-25.56 11.466-25.56 25.56v145.016c0 31.324 8.742 61.835 25.281 88.237 4.393 7.017 2.27 16.267-4.747 20.662-7.017 4.387-16.267 2.27-20.662-4.747-19.529-31.179-29.853-67.194-29.853-104.152v-145.016c0-30.625 24.915-55.54 55.54-55.54 9.386 0 18.319 2.492 26.188 6.837v-252.090c0-35.761 29.094-64.853 64.853-64.853 20.042 0 37.994 9.14 49.9 23.47 11.906-14.33 29.853-23.47 49.898-23.47h529.845c11.292 0 22.826-2.328 32.122 5.166 4.365 3.52 8.276 7.847 12.341 11.7 17.082 16.195 105.949 100.455 133.31 126.385 2.986 2.83 4.677 6.763 4.677 10.877v834.553c0 19.285-15.689 34.976-34.976 34.976zM226.28 669.043c-60.99 0-110.61 49.62-110.61 110.612 0 60.99 49.62 110.61 110.61 110.61s110.61-49.62 110.61-110.61c0-60.992-49.62-110.612-110.61-110.612zM844.572-13.465v72.014c0 10.409 8.468 18.877 18.879 18.877h75.672zM251.87 722.859c-6.591 5.011-15.993 3.727-21.006-2.862-0.312-0.412-1.015-1.101-2.212-1.101-1.201 0-1.907 0.698-2.22 1.113-4.987 6.609-14.384 7.921-20.994 2.936-6.609-4.987-7.923-14.386-2.936-20.994 6.158-8.162 15.935-13.033 26.15-13.033 10.323 0 19.828 4.715 26.080 12.937 5.009 6.587 3.729 15.993-2.862 21.004z" />
<glyph unicode="&#xe93c;" glyph-name="customer-support" d="M3.24 866.066l68.293-119.505c2.304-4.038 6.159-6.96 10.668-8.091l63.714-15.928 218.524-218.524 24.145 24.138-221.944 221.937c-2.184 2.191-4.923 3.743-7.922 4.495l-61.22 15.36-58.144 101.807 49.85 49.85 101.849-58.2 15.367-61.22c0.744-3.006 2.304-5.752 4.488-7.936l221.944-221.944 24.138 24.145-218.524 218.524-15.928 63.678c-1.131 4.516-4.052 8.379-8.091 10.689l-119.512 68.286c-6.665 3.792-15.051 2.669-20.486-2.746l-68.286-68.293c-5.492-5.401-6.686-13.8-2.922-20.521zM713.029 623.53l-375.588-375.595-24.145 24.145 375.595 375.588zM271.705 234.647c-3.090 5.141-8.638 8.28-14.636 8.28h-102.432c-5.991 0-11.546-3.139-14.629-8.28l-51.219-85.359c-3.252-5.408-3.252-12.171 0-17.586l51.219-85.359c3.083-5.134 8.638-8.28 14.629-8.28h102.432c5.998 0 11.546 3.146 14.636 8.28l51.212 85.359c3.252 5.415 3.252 12.178 0 17.586zM247.412 72.21h-83.111l-40.973 68.286 40.973 68.293h83.111l40.973-68.293zM820.455 550.23c112.756-0.379 204.478 90.724 204.857 203.48 0.056 17.164-2.051 34.259-6.272 50.896-2.275 9.151-11.539 14.72-20.69 12.445-3.006-0.751-5.745-2.304-7.936-4.488l-106.274-106.203-84.319 28.099-28.12 84.298 106.274 106.295c6.665 6.672 6.658 17.48-0.014 24.145-2.198 2.198-4.965 3.757-7.992 4.502-109.35 27.692-220.434-38.501-248.126-147.843-4.207-16.589-6.307-33.641-6.251-50.756 0.042-13.442 1.426-26.842 4.151-40.004l-373.889-373.882c-13.161 2.718-26.561 4.101-39.997 4.151-113.149 0-204.871-91.722-204.871-204.871 0-113.142 91.722-204.864 204.871-204.864 113.142 0 204.864 91.722 204.864 204.864-0.042 13.442-1.433 26.842-4.151 40.004l89.509 89.509 39.147-39.147c6.672-6.665 17.473-6.665 24.145 0l8.533 8.54c7.487 7.437 19.587 7.437 27.074 0 7.48-7.459 7.494-19.566 0.035-27.046-0.007-0.007-0.021-0.021-0.035-0.035l-8.533-8.533c-6.665-6.665-6.665-17.473 0-24.138l203.656-203.656c53.565-54.057 140.806-54.45 194.863-0.885 54.050 53.565 54.443 140.813 0.878 194.863-0.288 0.295-0.583 0.59-0.878 0.885l-203.656 203.649c-6.665 6.665-17.473 6.665-24.138 0l-8.533-8.533c-7.494-7.444-19.587-7.444-27.081 0-7.473 7.459-7.494 19.566-0.035 27.039 0.014 0.014 0.028 0.021 0.035 0.035l8.54 8.54c6.665 6.665 6.665 17.473 0 24.138l-39.147 39.147 89.509 89.509c13.161-2.718 26.561-4.109 39.997-4.151zM887.532-30.229c-12.403 0.021-24.7 2.261-36.309 6.623l133.334 133.341c20.121-53.523-6.953-113.219-60.476-133.341-11.679-4.389-24.061-6.637-36.548-6.623zM694.123 413.483c-18.906-22.551-15.942-56.164 6.609-75.063 19.819-16.61 48.705-16.596 68.503 0.049l191.59-191.759c2.079-2.086 4.024-4.284 5.906-6.517l-145.968-145.968c-2.24 1.875-4.439 3.821-6.524 5.906l-191.738 191.752c18.906 22.551 15.942 56.164-6.609 75.063-19.819 16.617-48.712 16.596-68.51-0.042l-27.313 27.313 146.734 146.516zM763.062 585.191l-387.289-387.212c-4.249-4.242-5.956-10.401-4.509-16.223 23.422-91.982-32.159-185.536-124.147-208.951-91.982-23.422-185.536 32.159-208.958 124.147-23.415 91.982 32.166 185.536 124.154 208.958 27.826 7.079 56.978 7.079 84.804 0 5.822-1.426 11.967 0.281 16.223 4.502l387.198 387.219c4.242 4.242 5.949 10.401 4.488 16.216-23.261 90.907 31.576 183.457 122.483 206.725 17.179 4.389 34.947 6.075 52.645 4.972l-90.057-90.092c-4.572-4.565-6.173-11.328-4.13-17.459l34.139-102.439c1.707-5.092 5.71-9.095 10.809-10.787l102.439-34.146c6.124-2.044 12.887-0.449 17.459 4.116l90.057 90.057c0.204-3.259 0.309-6.482 0.309-9.692 0.478-93.808-75.175-170.24-168.983-170.725-14.503-0.070-28.956 1.714-43.002 5.309-5.822 1.454-11.981-0.246-16.223-4.488h0.091zM883.761 101.356l-24.145-24.145-170.718 170.718 24.138 24.145z" />
</font>
</defs>
</svg>
